2 сезон

iTunes

MVO

1

2 сезон

iTunes

iTunes

1 сезон

RePack

30

Новинка

ВАЖНО

ИГРА 18+

pack

RePack

MK11
pack

Легкие деньги

RePack

jed

RePack

fifa19

RePack

RDR2

RePack

NEED FOR SPEED™ PAYBACK

4 сезон

9 сезон

Бесстыжие 9 сезон

Все сериалы

все сериалы на PB.wtf

RePack

FAR CRY 5

Anonymous, добрый вечер, мы не успеваем собрать деньги на оплату серверов за декабрь и январь, помогите нам пожалуйста в это трудное время. В качестве благодарности мы отключим Вам всю рекламу на сайте (укажите свой ник в строку Ваше имя)!

×
  
Magnet ссылка

Падение Джека / Джек замолчал / Jack Falls (Пол Тантер / Paul Tanter) [2011 г., криминал, BDRip] VO (Voiz) pb.wtf

Падение Джека через торрент pb.wtf

Размер: 1.46 GB | Добавлен: 9 лет 1 мес. назад | Торрент скачан:79 раз
Скачать  

26-11-2011 14:34 Падение Джека Скачать торрент  

Падение Джека / Джек замолчал / Jack Falls

Год выпуска: 2011
Страна: Великобритания
Жанр: криминал
Продолжительность: 01:40:43
Перевод: Одноголосый, закадровый (Voiz)

Режиссер: Paul Tanter, Alexander Williams
Продюссер: Тоби Мередит, Саймон Филлипс, Patrica Rybarczyk
Сценарий: Paul Tanter

Бюджет: 1 200 000
Премьера в мире: 21 марта 2011

Мировой рейтинг IMDB 4.20 (692)


В ролях: Тэмер Хассан, Саймон Филлипс, Оливия Холлинен, Алан Форд, Декстер Флетчер, Адам Дикон, Джейсон Флеминг, Нил Мэскелл, Себастьян Стрит, Даг Брэдли

Описание: Бывший полицейский под прикрытием Джек Адлет возвращается в Лондон в поисках тех, кто попытался убить его в Амстердаме.

Качество: BDRip
Формат: AVI
Видео кодек: XviD
Аудио кодек: AC3
Видео: 720x304 (2.37:1), 25 fps, XviD build 64 ~1612 kbps avg, 0.29 bit/pixel
Аудио: 48 kHz, AC3 Dolby Digital, 3/2 (L,C,R,l,r) + LFE ch, ~448 kbps

Общее
Полное имя : G:\Jack.Falls.2011.BDRip.VO.All.Films.avi
Формат : AVI
Формат/Информация : Audio Video Interleave
Размер файла : 1,46 Гбайт
Продолжительность : 1 ч. 40 м.
Общий поток : 2070 Кбит/сек
Название фильма : Jack.Falls.2011.BDRip.VO.All.Films
Режиссёр : DIABLO93
Жанр : Crime/Drama/Thriller
Программа кодирования : VirtualDubMod 1.5.10.3 | www.virtualdub-fr.org || (build 2550/release)
Формат оригинала/Имя : Movie
Правообладатель : Rutracker.org (All Films)

Видео
Идентификатор : 0
Формат : MPEG-4 Visual
Профиль формата : Advanced Simple@L5
Параметр BVOP формата : 2
Параметр QPel формата : Нет
Параметр GMC формата : Без точки перехода
Параметр матрицы формата : Выборочная
Идентификатор кодека : XVID
Идентификатор кодека/Подсказка : XviD
Продолжительность : 1 ч. 40 м.
Битрейт : 1613 Кбит/сек
Ширина : 720 пикс.
Высота : 304 пикс.
Соотношение сторон : 2,35:1
Частота кадров : 25,000 кадр/сек
Цветовое пространство : YUV
Подвыборка цветности : 4:2:0
Битовая глубина : 8 бит
Тип развёртки : Прогрессивная
Метод сжатия : С потерями
Бит/(Пиксели*Кадры) : 0.295
Размер потока : 1,13 Гбайт (78%)
Библиотека кодирования : XviD 64

Аудио
Идентификатор : 1
Формат : AC-3
Формат/Информация : Audio Coding 3
Расширение режима : CM (complete main)
Идентификатор кодека : 2000
Продолжительность : 1 ч. 40 м.
Вид битрейта : Постоянный
Битрейт : 448 Кбит/сек
Каналы : 6 каналов
Расположение каналов : Front: L C R, Side: L R, LFE
Частота : 48,0 КГц
Битовая глубина : 16 бит
Метод сжатия : С потерями
Размер потока : 323 Мбайт (22%)
Выравнивание : Разделение по промежуткам
Продолжительность промежутка : 40 мс. (1,00 видеокадр)
Время предзагрузки промежутка : 500 ms




pb.wtf



Скачать Падение Джека через торрент http://i30.fastpic.ru/big/2011/1126/52/3ca5b8c7d169e8df292c6624832b1552.jpg Скачать фильм Падение Джека через торрент бесплантно в хорошем качестве Описание: Бывший полицейский под прикрытием Джек Адлет возвращается в Лондон в поисках тех, кто попытался убить его в ... 5 10 1
Info! Золотая раздача, скачанное не засчитывается.
Торрент: Зарегистрирован [2011-11-26 14:34] · скачан: 79 раз
Статус: √ проверено
Размер: 1.46 GB
Как cкачать? Как скачать Падение Джека через торрент | UTorrent

28-11-2019 20:33  

Отключить всю рекламу на сайте

26-11-2011 15:56 Падение Джека Скачать торрент  

Раздают 5 человек, и не один не отписался. Как фильм. Судя по скринам чёрнобелый?pb.wtf



26-11-2011 16:11 Падение Джека Скачать торрент  

Так снимали , моментами цветные вставки.pb.wtf



26-11-2011 17:25 Падение Джека Скачать торрент  

шляпаpb.wtf



    Дорогой пользователь! Огромная просьба, поблагодарите релизера, оцените раздачу и оставьте свои комментарий, если Вы скачали Падение Джека через торрент бесплатно! Внесите свою лепту в развитие PiratBit!
    Комментировать посты могут только пользователи прошедшие не сложную регистрацию
    Показать сообщения:    

    Падение Джека через торрент
    Скачать бесплатно Падение Джека
    Падение Джека скачать торрент
    Падение Джека смотреть онлайн
    Cкачать фильм Падение Джека бесплатно
    Падение Джека скачать торрент в хорошем качестве
    Падение Джека смотреть онлайн бесплатно в хорошем качестве


    Вы не можете начинать темы
    Вы не можете отвечать на сообщения
    Вы не можете редактировать свои сообщения
    Вы не можете удалять свои сообщения
    Вы не можете голосовать в опросах
    Вы не можете прикреплять файлы к сообщениям
    Вы можете скачивать файлы