Всегда рабочее зеркало без VPN и Proxy просто перед .vidak.icu напиши любое слово или цифру, Пример http://cx0b.vidak.icu

Лицензия

MVO

1 сезон

1

1 сезон

iTunes

1 сезон

13

1 сезон

Deluxe

pack

Рекомендуем

Repack

30

ВАЖНО

RePack

MK11

RePack

jed

RePack

fifa19

RePack

RDR2

RePack

NEED FOR SPEED™ PAYBACK

Кинопоиск HD

6 сезон

 Острые козырьки 6 сезон

Все сериалы

все сериалы на PB.wtf

RePack

FAR CRY 5
  
Magnet ссылка

Ледниковый период: Рождество мамонта / Ice Age: A Mammoth Christmas (Карен Дишер) [2011, комедия, мультфильм, семейный, DVDRip] pb.wtf

Ледниковый период: Рождество мамонта через торрент pb.wtf

Размер: 222 MB | Добавлен: 10 лет назад | Торрент скачан:508 раз
Смотреть онлайн Ледниковый период: Рождество мамонта | Скачать    Ребята, помогите собрать деньги на оплату серверов!!!

27-11-2011 08:19 Ледниковый период: Рождество мамонта Скачать торрент  

Ледниковый период: Рождество мамонта / Ice Age: A Mammoth Christmas Год выхода: 2011
Жанр: Комедия, мультфильм, семейный
Продолжительность: 00:25:29
Перевод: Любительский одноголосый (Доцент)

Режиссер: Карен Дишер

Описание: Когда Сид случайно разрушает рождественскую скалу, Мэнни говорит ему, что Сид попал в черный список Санты, и что ленивцу придется лететь на северный полюс просить извинения у Санты. На северном полюсе Сид хотел все сделать как лучше, но только усугубил ситуацию . Теперь дело за Мэнни и компанией, только они объединившись сохранят Рождество для всего мира!



Файл
Качество: DVDRip
Формат: AVI
Видео кодек: Xvid
Аудио кодек: MP3
Видео: XVID 640x352 23.98fps 982Kbps
Аудио: MPEG Audio Layer 3 44100Hz stereo 224Kbps

Код:

Общее
Полное имя                       : E:\Мои документы\Андрей\Downloads\Lednikovij.period.Rozdestvo.mamonta.2011.XviD.DVDRip.Docent.avi
Формат                           : AVI
Формат/Информация                : Audio Video Interleave
Размер файла                     : 222 Мбайт
Продолжительность                : 25 м.
Общий поток                      : 1216 Кбит/сек
Название фильма                  : A Mammoyh Christmas
Режиссёр                         : [email protected]
Жанр                             : short anivation
Ключевые слова                   : Ice Age. A Mammoyh Christmas Special
Программа кодирования            : VirtualDubModRus 1.5.10.2 (build 2542/release) VirtualDubMod build 2542/release
ILGU                             : http://www.mults.org/covers/ice.age.xmas.jpg
ILIU                             : http://www.mults.org/banners/mults.org.k.gif

Видео
Идентификатор                    : 0
Формат                           : MPEG-4 Visual
Профиль формата                  : Advanced [email protected]
Параметр BVOP формата            : 2
Параметр QPel формата            : Нет
Параметр GMC формата             : Без точки перехода
Параметр матрицы формата         : Default (H.263)
Режим смешивания                 : Сжатый битовый поток
Идентификатор кодека             : XVID
Идентификатор кодека/Подсказка   : XviD
Продолжительность                : 25 м.
Битрейт                          : 983 Кбит/сек
Ширина                           : 640 пикс.
Высота                           : 352 пикс.
Соотношение сторон               : 16:9
Частота кадров                   : 23,976 кадр/сек
Цветовое пространство            : YUV
Подвыборка цветности             : 4:2:0
Битовая глубина                  : 8 бит
Тип развёртки                    : Прогрессивная
Метод сжатия                     : С потерями
Бит/(Пиксели*Кадры)              : 0.182
Размер потока                    : 179 Мбайт (81%)
Библиотека кодирования           : XviD 1.2.1 (UTC 2008-12-04)

Аудио
Идентификатор                    : 1
Формат                           : MPEG Audio
Версия формата                   : Version 1
Профиль формата                  : Layer 3
Идентификатор кодека             : 55
Идентификатор кодека/Подсказка   : MP3
Продолжительность                : 25 м.
Вид битрейта                     : Постоянный
Битрейт                          : 224 Кбит/сек
Каналы                           : 2 канала
Частота                          : 44,1 КГц
Метод сжатия                     : С потерями
Размер потока                    : 40,9 Мбайт (18%)
Выравнивание                     : Разделение по промежуткам
Продолжительность промежутка     : 42  мс. (1,00 видеокадр)
Время предзагрузки промежутка    : 500 ms
Язык                             : un

pb.wtf



Скачать Ледниковый период: Рождество мамонта через торрент https://pic1.kartinco.top/images/2011/iyyqj7rl3u.jpg Скачать, смотреть онлайн Ледниковый период: Рождество мамонта бесплантно в хорошем качестве Описание: Когда Сид случайно разрушает рождественскую скалу, Мэнни говорит ему, что Сид попал в черный список Санты, и что ленивцу придется ... 4.7 10 28
Info! Золотая раздача, скачанное не засчитывается.
Торрент: Зарегистрирован [2011-11-27 08:20] · скачан: 508 раз
Статус: √ проверено
Размер: 222 MB
Как cкачать? Как скачать Ледниковый период: Рождество мамонта через торрент | UTorrent

% Раздел Тема Автор DL S | L
Иностранные мультфильмы [ 228 MB ] Ледниковый период: Рождество мамонта / Ice Age: A Mammoth Christmas [2011 мультфильм DVDRip] ACFIORENTINA Скачать
1 | 0
Иностранные мультфильмы [ 499 MB ] Ледниковый период: Рождество мамонта / Ice Age: A Mammoth Christmas [2011 Мультфильм HDRip] МИХА~ Скачать
1 | 0

28-11-2019 20:33  

Отключить вcю реклaмy на сайте

    Дорогой пользователь! Огромная просьба, поблагодарите релизера, оцените раздачу и оставьте свои комментарий, если Вы скачали Ледниковый период: Рождество мамонта через торрент бесплатно!
    Комментировать посты могут только пользователи прошедшие не сложную регистрацию
    Показать сообщения:    

    Ледниковый период: Рождество мамонта через торрент
    Скачать бесплатно Ледниковый период: Рождество мамонта
    Ледниковый период: Рождество мамонта скачать торрент
    Ледниковый период: Рождество мамонта смотреть онлайн
    Cкачать фильм Ледниковый период: Рождество мамонта бесплатно
    Ледниковый период: Рождество мамонта скачать торрент в хорошем качестве
    Ледниковый период: Рождество мамонта смотреть онлайн бесплатно в хорошем качестве


    Вы не можете начинать темы
    Вы не можете отвечать на сообщения
    Вы не можете редактировать свои сообщения
    Вы не можете удалять свои сообщения
    Вы не можете голосовать в опросах
    Вы не можете прикреплять файлы к сообщениям
    Вы можете скачивать файлы