Ссылка на приватное зеркало нашего сайта всего за 1$. Внимание количество ограничено!!!

2 сезон

iTunes

1 сезон

1

2 сезон

2 сезон

iTunes

1 сезон

RePack

30

Ultimate

ВАЖНО

ИГРА 18+

pack

RePack

MK11
pack

Забери бонус

RePack

jed

!!Акция!!

Alien_Rage

RePack

fifa19

RePack

Assassins Creed: Odyssey

RePack

NEED FOR SPEED™ PAYBACK

4 сезон

9 сезон

Бесстыжие 9 сезон

Все сериалы

все сериалы на PB.wtf

RePack

FAR CRY 5
  

Место преступления​: Нью-Йорк / CSI: New York / Сезон: 6 (David Von Ancken) [2009-2010 гг., детектив, драма, триллер, HDTVRip] pb.wtf

Место преступления​: Нью-Йорк через торрент pb.wtf

Размер: 12.57 GB | Добавлен: 9 лет назад | Торрент скачан:19 раз
Скачать  

27-11-2011 11:45 Место преступления​: Нью-Йорк Скачать торрент  

Место преступления: Нью-Йорк / CSI: New York

Год выпуска: 2010
Страна: США
Жанр: Детектив, драма, триллер
Продолжительность: ~42 минуты
Перевод: Серии 1-5: многоголосое закадровое © Neo-Sound
Серии 6-...: любительское двухголосое © OneFilmTV

Режиссер: David Von Ancken

В ролях: Gary Sinise (Detective Mac Taylor), Melina Kanakaredes (Detective Stella Bonasera), Carmine Giovinazzo (Detective Danny Messer), Anna Belknap (Detective Lindsay Monroe), Hill Harper (Dr. Sheldon Hawkes), Eddie Cahill (Detective Don Flack), Robert Joy (Dr. Sid Hammerback), A.J. Buckley(Adam Ross) и др.

Описание: Продолжение сериала о работе криминалистов в Нью-Йорке. Над раскрытием преступлений работает команда детективов, вооружённых самыми последними разработками в различных областях науки и техники. Команду возглавляет детектив Мак Тэйлор, преданный своему делу специалист, который убеждён, что в преступлениях всё взаимосвязано и, если потянуть за едва видимую нить, можно распутать даже самый сложный клубок событий. Его напарник, детектив Стелла Бонасера - настоящий фанат своего дела и мастер на все руки. Мак и Стелла вместе с другими членами команды CSI ведут отчаянную борьбу против преступности в каменных джунглях Нью-Йорка.

Качество: HDTVRip
Формат: AVI
Видео кодек: XviD
Аудио кодек: MP3
Видео: 720 *400,( 16:9),1495 Кбит/сек,23,976 кадр/сек
Аудио: MP3 ,2 канала;320 Кбит/сек; 48,0 КГц
Season 6, Episode 1: Epilogue
Season 6, Episode 2: Blacklist (Featuring Grave Digger)
Season 6, Episode 3: Lat 40° 47' N/Long 73° 58' W
Season 6, Episode 4: Dead Reckoning
Season 6, Episode 5: Battle Scars
Season 6, Episode 6: It Happened to Me
Season 6, Episode 7: Hammer Down
Season 6, Episode 8: Cuckoo's Nest
Season 6, Episode 9: Manhattanhenge
Season 6, Episode 10: Death House
Season 6, Episode 11: Second Chances
Season 6, Episode 12: Criminal Justice
Season 6, Episode 13: Flag on the Play
Season 6, Episode 14: Sanguine Love
Season 6, Episode 15: The Formula
Season 6, Episode 16: Uncertainty Rules
Season 6, Episode 17: Pot of Gold
Season 6, Episode 18: Rest in Peace, Marina Garito
Season 6, Episode 19: Redemptio
Season 6, Episode 20: Tales from the Undercard
Season 6, Episode 21: Unusual Suspects
Season 6, Episode 22: Point of View
Season 6, Episode 23: Vacation Getaway
Общее
Полное имя : CSI_New_York_Season_6\s06e01_Epilogue.avi
Формат : AVI
Формат/Информация : Audio Video Interleave
Размер файла : 551 Мбайт
Продолжительность : 42 м.
Общий поток : 1827 Кбит/сек
Название фильма : Epilogue
Режиссёр : Gary Sinise (Detective Mac Taylor), Melina Kanakaredes (Detective Stella Bonasera), Carmine Giovinazzo (Detective Danny Messer), Anna Belknap (Detective Lindsay Monroe), Hill Harper (Dr. Sheldon Hawkes), Eddie Cahill (Detective Don Flack), Robert Joy (Dr. Sid Hammerback), A.J. Buckley(Adam Ross) Рё РґСЂ.
Жанр : Crime
Дата записи : 2009-09-23T00:00:00
Программа кодирования : Lavf52.94.0
Формат оригинала/Имя : CSI: Место преступления РќСЊСЋ-Йорк

Видео
Идентификатор : 0
Формат : xvid
Идентификатор кодека : xvid
Продолжительность : 42 м.
Битрейт : 1495 Кбит/сек
Ширина : 720 пикс.
Высота : 400 пикс.
Соотношение сторон : 16:9
Частота кадров : 23,976 кадр/сек
Бит/(Пиксели*Кадры) : 0.216
Размер потока : 450 Мбайт (82%)

Аудио
Идентификатор : 1
Формат : MPEG Audio
Версия формата : Version 1
Профиль формата : Layer 3
Режим : Joint stereo
Идентификатор кодека : 55
Идентификатор кодека/Подсказка : MP3
Продолжительность : 42 м.
Вид битрейта : Постоянный
Битрейт : 320 Кбит/сек
Каналы : 2 канала
Частота : 48,0 КГц
Метод сжатия : С потерями
Размер потока : 96,4 Мбайт (18%)
Выравнивание : Соединение по промежуткам
Продолжительность промежутка : 24 мс. (0,58 видеокадр)
Библиотека кодирования : LAME3.98.4




pb.wtf



Скачать Место преступления​: Нью-Йорк через торрент http://i32.fastpic.ru/big/2011/1125/2b/9932a7bfffc062c3059ddacb38f5452b.jpg Скачать фильм Место преступления​: Нью-Йорк через торрент бесплантно в хорошем качестве Описание: Продолжение сериала о работе криминалистов в Нью-Йорке. Над раскрытием преступлений работает команда детективов, вооружённых ... 5 10 3
Info! Золотая раздача, скачанное не засчитывается.
Торрент: Зарегистрирован [2011-11-27 11:45] · скачан: 19 раз
Статус: √ проверено
Размер: 12.57 GB
Как cкачать? Как скачать Место преступления​: Нью-Йорк через торрент | qTorrent

28-11-2019 20:33  

Отключить всю рекламу на сайте

27-11-2011 13:09 Место преступления​: Нью-Йорк Скачать торрент  

За скорость извините - раздаю сам.pb.wtf



18-03-2015 21:32 Место преступления​: Нью-Йорк Скачать торрент  

По раздавайте что ли кто-нибудь плзpb.wtf



    Дорогой пользователь! Огромная просьба, поблагодарите релизера, оцените раздачу и оставьте свои комментарий, если Вы скачали Место преступления​: Нью-Йорк через торрент бесплатно! Внесите свою лепту в развитие PiratBit!
    Комментировать посты могут только пользователи прошедшие не сложную регистрацию
    Показать сообщения:    

    Место преступления​: Нью-Йорк через торрент
    Скачать бесплатно Место преступления​: Нью-Йорк
    Место преступления​: Нью-Йорк скачать торрент
    Место преступления​: Нью-Йорк смотреть онлайн
    Cкачать фильм Место преступления​: Нью-Йорк бесплатно
    Место преступления​: Нью-Йорк скачать торрент в хорошем качестве
    Место преступления​: Нью-Йорк смотреть онлайн бесплатно в хорошем качестве


    Вы не можете начинать темы
    Вы не можете отвечать на сообщения
    Вы не можете редактировать свои сообщения
    Вы не можете удалять свои сообщения
    Вы не можете голосовать в опросах
    Вы не можете прикреплять файлы к сообщениям
    Вы можете скачивать файлы