Ссылка на приватное зеркало нашего сайта всего за 1$. Внимание количество ограничено!!!

2 сезон

iTunes

1 сезон

1

2 сезон

2 сезон

iTunes

1 сезон

RePack

30

Ultimate

ВАЖНО

ИГРА 18+

pack

RePack

MK11
pack

Забери бонус

RePack

jed

!!Акция!!

Alien_Rage

RePack

fifa19

RePack

Assassins Creed: Odyssey

RePack

NEED FOR SPEED™ PAYBACK

4 сезон

9 сезон

Бесстыжие 9 сезон

Все сериалы

все сериалы на PB.wtf

RePack

FAR CRY 5
  

Место преступления​: Нью-Йорк / CSI: New York / Сезон: 7 / Серии 1-22 из 22 (Дуан Кларк, Эрик Ланёвилль) [2010-2011 гг., детектив, драма, триллер, HDTVRip] pb.wtf

Место преступления​: Нью-Йорк через торрент pb.wtf

Размер: 11.56 GB | Добавлен: 9 лет назад | Торрент скачан:18 раз
Скачать  

27-11-2011 11:54 Место преступления​: Нью-Йорк Скачать торрент  

Место преступления: Нью-Йорк / CSI: New York

Год выпуска: 2010-2011
Страна: США
Жанр: Детектив, драма, триллер
Продолжительность: ~44 минуты
Перевод: любительский многоголосый закадровый (OneFilm) (серии 1-5)
любительский одноголосый закадровый (nikolas) (серии 6-22)

Режиссер: Дуан Кларк, Эрик Ланёвилль

В ролях: Гэри Синиз (Detective Mac Taylor), Сэла Вард (Jo Danville), Кармине Джовинаццо (Detective Danny Messer), Анна Белкнап (Detective Lindsay Monroe), Роберт Джой (Dr. Sid Hammerback), А.Дж. Баккли (Adam Ross), Хилл Харпер (Dr. Sheldon Hawkes), Эдди Кехилл (Detective Don Flack) и др.

Описание: Продолжение сериала о работе криминалистов в Нью-Йорке. Над раскрытием преступлений работает команда детективов, вооружённых самыми последними разработками в различных областях науки и техники. Команду возглавляет детектив Мак Тэйлор, преданный своему делу специалист, который убеждён, что в преступлениях всё взаимосвязано и, если потянуть за едва видимую нить, можно распутать даже самый сложный клубок событий. Его напарник, детектив Стелла Бонасера - настоящий фанат своего дела и мастер на все руки. Мак и Стелла вместе с другими членами команды CSI ведут отчаянную борьбу против преступности в каменных джунглях Нью-Йорка



Качество: HDTVRip
Формат: AVI
Видео кодек: XviD
Аудио кодек: MP3
Видео: 720 *400,( 16:9),1446 Кбит/сек,23,976 кадр/сек xvid
Аудио: MP3 ,2 канала;256 Кбит/сек; 48,0 КГц
Season 7, Episode 1: The 34th Floor
Season 7, Episode 2: Unfriendly Chat
Season 7, Episode 3: Damned If You Do
Season 7, Episode 4: Sangre por Sangra
Season 7, Episode 5: Out of the Sky
Season 7, Episode 6: Do Not Pass Go - 29 October 2010
Season 7, Episode 7: Hide Sight - 5 November 2010
Season 7, Episode 8: Scared Stiff - 12 November 2010
Season 7, Episode 9: Justified - 19 November 2010
Season 7, Episode 10: Shop Till You Drop - 3 December 2010
Season 7, Episode 11: To What End? - 7 January 2011
Season 7, Episode 12: Holding Cell - 14 January 2011
Season 7, Episode 13: Party Down - 4 February 2011
Season 7, Episode 14: Smooth Criminal - 11 February 2011
Season 7, Episode 15: Vigilante - 18 February 2011
Season 7, Episode 16: The Untouchable - 25 February 2011
Season 7, Episode 17: Do or Die - 11 March 2011
Season 7, Episode 18: Identity Crisis - 1 April 2011
Season 7, Episode 19: Food for Thought - 8 April 2011
Season 7, Episode 20: Nothing for Something - 29 April 2011
Season 7, Episode 21: Life Sentence - 6 May 2011
Season 7, Episode 22: Exit Strategy - 13 May 2011
Общее
Полное имя : CSI_ New_York_Season_7\s07e01_The 34th Floor.avi
Формат : AVI
Формат/Информация : Audio Video Interleave
Размер файла : 536 Мбайт
Продолжительность : 43 м.
Общий поток : 1715 Кбит/сек
Название фильма : The 34th Floor
Режиссёр : Дуан Кларк, Р­СЂРёРє Ланёвилль
Жанр : Crime
Дата записи : 2010-09-24T00:00:00
Программа кодирования : Lavf52.94.0
Формат оригинала/Имя : CSI: Место преступления РќСЊСЋ-Йорк

Видео
Идентификатор : 0
Формат : xvid
Идентификатор кодека : xvid
Продолжительность : 43 м.
Битрейт : 1446 Кбит/сек
Ширина : 720 пикс.
Высота : 400 пикс.
Соотношение сторон : 16:9
Частота кадров : 23,976 кадр/сек
Бит/(Пиксели*Кадры) : 0.209
Размер потока : 452 Мбайт (84%)

Аудио
Идентификатор : 1
Формат : MPEG Audio
Версия формата : Version 1
Профиль формата : Layer 3
Режим : Joint stereo
Расширение режима : MS Stereo
Идентификатор кодека : 55
Идентификатор кодека/Подсказка : MP3
Продолжительность : 43 м.
Вид битрейта : Постоянный
Битрейт : 256 Кбит/сек
Каналы : 2 канала
Частота : 48,0 КГц
Метод сжатия : С потерями
Размер потока : 80,1 Мбайт (15%)
Выравнивание : Соединение по промежуткам
Продолжительность промежутка : 24 мс. (0,58 видеокадр)
Библиотека кодирования : LAME3.98.4




pb.wtf



Скачать Место преступления​: Нью-Йорк через торрент http://i28.fastpic.ru/big/2011/1127/8b/33ff483d962ba31224eeca2588aff48b.jpg Скачать фильм Место преступления​: Нью-Йорк через торрент бесплантно в хорошем качестве Описание: Продолжение сериала о работе криминалистов в Нью-Йорке. Над раскрытием преступлений работает команда детективов, вооружённых ... 5 10 2
Info! Золотая раздача, скачанное не засчитывается.
Торрент: Зарегистрирован [2011-11-27 11:54] · скачан: 18 раз
Статус: √ проверено
Размер: 11.56 GB
Как cкачать? Как скачать Место преступления​: Нью-Йорк через торрент | qTorrent

28-11-2019 20:33  

Отключить всю рекламу на сайте

06-10-2012 17:07 Место преступления​: Нью-Йорк Скачать торрент  

Ребят посидите на раздаче пожалуйста, просто "0" сидеровpb.wtf



18-03-2015 20:44 Место преступления​: Нью-Йорк Скачать торрент  

По раздавайте что ли кто-нибудь -_-pb.wtf



    Дорогой пользователь! Огромная просьба, поблагодарите релизера, оцените раздачу и оставьте свои комментарий, если Вы скачали Место преступления​: Нью-Йорк через торрент бесплатно! Внесите свою лепту в развитие PiratBit!
    Комментировать посты могут только пользователи прошедшие не сложную регистрацию
    Показать сообщения:    

    Место преступления​: Нью-Йорк через торрент
    Скачать бесплатно Место преступления​: Нью-Йорк
    Место преступления​: Нью-Йорк скачать торрент
    Место преступления​: Нью-Йорк смотреть онлайн
    Cкачать фильм Место преступления​: Нью-Йорк бесплатно
    Место преступления​: Нью-Йорк скачать торрент в хорошем качестве
    Место преступления​: Нью-Йорк смотреть онлайн бесплатно в хорошем качестве


    Вы не можете начинать темы
    Вы не можете отвечать на сообщения
    Вы не можете редактировать свои сообщения
    Вы не можете удалять свои сообщения
    Вы не можете голосовать в опросах
    Вы не можете прикреплять файлы к сообщениям
    Вы можете скачивать файлы