Ссылка на приватное зеркало нашего сайта всего за 1$. Внимание количество ограничено!!!

2 сезон

iTunes

1 сезон

1

2 сезон

2 сезон

iTunes

1 сезон

RePack

30

Ultimate

ВАЖНО

ИГРА 18+

pack

RePack

MK11
pack

Забери бонус

RePack

jed

!!Акция!!

Alien_Rage

RePack

fifa19

RePack

Assassins Creed: Odyssey

RePack

NEED FOR SPEED™ PAYBACK

4 сезон

9 сезон

Бесстыжие 9 сезон

Все сериалы

все сериалы на PB.wtf

RePack

FAR CRY 5
  

Морская полиция: Спецотдел / Navy NCIS: Naval Criminal Investigativ​e Service / Сезон: 8 / Серии 1-24 (24) (Дональд П. Беллисарио, Дон МакГилл) [2010-2011 гг., детектив, драма, WEB-DLRip] (Gravi-TV) pb.wtf

Морская полиция: Спецотдел через торрент pb.wtf

Размер: 9.38 GB | Добавлен: 8 лет 11 мес. назад | Торрент скачан:51 раз
Скачать  

27-11-2011 15:43 Морская полиция: Спецотдел Скачать торрент  

Морская полиция: Спецотдел / Navy NCIS

Год выпуска: 2010-2011 гг.
Страна: США
Жанр: детектив, драма
Продолжительность: ~ 00:44:00
Перевод: Любительский (двухголосый, закадровый) Gravi-TV

Режиссер: Дональд П. Беллисарио, Дон МакГилл

В ролях: Марк Хармон, Майкл Уизерли, Полли Перретт, Дэвид МакКаллум, Шон Мюррэй, Коте де Пабло и др.

Описание: Остросюжетный детектив о приключениях команды специальных агентов. Их задача - расследовать преступления, связанные со служащими морской пехоты. Отдел расследований возглавляет специальный агент Лерой Джетро Гиббс. Его команда – это бывший детектив Энтони ДиНоззоо, ныне бывший секретный агент Моссад - Зива Давид, судмедэксперт Эбби Шуто и компьютерный гений Тимоти МакГи.

Доп. информация: Релиз:
Перевод: pAKk 1 и 2 серии Творческая группа переводчиков d722tar
с 3 серии gifira, marina556678, Marlboro, Shtopor96
Руководитель: evatar
Озвучивание: kitos & Snugrik

Качество: WEB-DLRip
Формат: AVI
Видео кодек: DivX
Аудио кодек: MP3
Видео: 720x400 (1.80:1), 23.975 fps, DivX Codec 5.x or 6.x ~1011 kbps avg, 0.15 bit/pixel
Аудио RUS: 48 kHz, MPEG Layer 3, 2 ch, ~128.00 kbps avg
Аудио ENG: 48 kHz, MPEG Layer 3, 2 ch, ~128.00 kbps avg
«Паук и Муха»
«Худший кошмар»
«Взрыватель с замедлением»
«Закон и корона»
«Мертвый эфир»
«Ненормальность»
«Сломанная стрела»
«Внешний враг»
«Внутренний враг»
«Лжесвидетель»
«Корабли в ночи»
«Завербованный»
«Свобода»
«Человек заходит в бар ...»
«Неповиновение»
«Экран убийцы»
«Последний шанс»
«Из огня да в полымя»
«Скандальные сведения»
«Двуликий»
«Мертвое отражение»
«Балтимор»
«Лебединая песня»
«Пирамида»
General
Complete name : C:\Navy_NCIS_s08\NCIS.s08e01.WEB-DLRip.Rus.Eng.Gravi-TV.avi
Format : AVI
Format/Info : Audio Video Interleave
File size : 400 MiB
Duration : 43mn 39s
Overall bit rate : 1 282 Kbps
Writing application : VirtualDubMod 1.6.0.0 SURROUND (build 2560/release)
Writing library : VirtualDubMod build 2560/release

Video
ID : 0
Format : MPEG-4 Visual
Format settings, BVOP : Yes
Format settings, QPel : No
Format settings, GMC : No warppoints
Format settings, Matrix : Default (MPEG)
Muxing mode : Packed bitstream
Codec ID : DX50
Codec ID/Hint : DivX 5
Duration : 43mn 39s
Bit rate : 1 012 Kbps
Width : 720 pixels
Height : 400 pixels
Display aspect ratio : 16:9
Frame rate : 23.976 fps
Resolution : 8 bits
Colorimetry : 4:2:0
Scan type : Progressive
Bits/(Pixel*Frame) : 0.147
Stream size : 316 MiB (79%)
Writing library : DivX 6.8.2 (UTC 2008-05-17)

Audio #1
ID : 1
Format : MPEG Audio
Format version : Version 1
Format profile : Layer 3
Codec ID : 55
Codec ID/Hint : MP3
Duration : 43mn 39s
Bit rate mode : Constant
Bit rate : 128 Kbps
Channel(s) : 2 channels
Sampling rate : 48.0 KHz
Stream size : 40.0 MiB (10%)
Alignment : Aligned on interleaves
Interleave, duration : 42 ms (1.00 video frame)
Interleave, preload duration : 504 ms

Audio #2
ID : 2
Format : MPEG Audio
Format version : Version 1
Format profile : Layer 3
Codec ID : 55
Codec ID/Hint : MP3
Duration : 43mn 39s
Bit rate mode : Constant
Bit rate : 128 Kbps
Channel(s) : 2 channels
Sampling rate : 48.0 KHz
Stream size : 40.0 MiB (10%)
Alignment : Aligned on interleaves
Interleave, duration : 42 ms (1.00 video frame)
Interleave, preload duration : 504 ms




pb.wtf



Скачать Морская полиция: Спецотдел через торрент http://i29.fastpic.ru/big/2011/1127/b8/a43e91b7d2a92334d587c2ec5d9a9cb8.png Скачать фильм Морская полиция: Спецотдел через торрент бесплантно в хорошем качестве Описание: Остросюжетный детектив о приключениях команды специальных агентов. Их задача - расследовать преступления, связанные со служащими ... 5 10 2
Info! Золотая раздача, скачанное не засчитывается.
Торрент: Зарегистрирован [2011-11-27 15:43] · скачан: 51 раз
Статус: √ проверено
Размер: 9.38 GB
Как cкачать? Как скачать Морская полиция: Спецотдел через торрент | qTorrent

28-11-2019 20:33  

Отключить всю рекламу на сайте

    Дорогой пользователь! Огромная просьба, поблагодарите релизера, оцените раздачу и оставьте свои комментарий, если Вы скачали Морская полиция: Спецотдел через торрент бесплатно! Внесите свою лепту в развитие PiratBit!
    Комментировать посты могут только пользователи прошедшие не сложную регистрацию
    Показать сообщения:    

    Морская полиция: Спецотдел через торрент
    Скачать бесплатно Морская полиция: Спецотдел
    Морская полиция: Спецотдел скачать торрент
    Морская полиция: Спецотдел смотреть онлайн
    Cкачать фильм Морская полиция: Спецотдел бесплатно
    Морская полиция: Спецотдел скачать торрент в хорошем качестве
    Морская полиция: Спецотдел смотреть онлайн бесплатно в хорошем качестве


    Вы не можете начинать темы
    Вы не можете отвечать на сообщения
    Вы не можете редактировать свои сообщения
    Вы не можете удалять свои сообщения
    Вы не можете голосовать в опросах
    Вы не можете прикреплять файлы к сообщениям
    Вы можете скачивать файлы