Ссылка на приватное зеркало нашего сайта всего за 1$. Внимание количество ограничено!!!

2 сезон

iTunes

1 сезон

1

iTunes

iTunes

iTunes

1 сезон

RePack

30

ИГРА 18+

pack

ВАЖНО

!!Акция!!

Alien_RageХит недели

RePack

MK11
pack

Забери бонус

RePack

jed

!!Акция!!

Alien_Rage

RePack

fifa19

RePack

Assassins Creed: Odyssey

RePack

NEED FOR SPEED™ PAYBACK

4 сезон

9 сезон

Бесстыжие 9 сезон

Все сериалы

все сериалы на PB.wtf

RePack

FAR CRY 5
  

Район №9 / District 9 (Нил Бломкамп) [2009 г.,фантастика, боевик, триллер, драма, BDRip 1080p] pb.wtf

Район №9 через торрент pb.wtf

Размер: 13.59 GB | Добавлен: 8 лет 11 мес. назад | Торрент скачан:123 раза
Скачать  

29-11-2011 11:28 Район №9 Скачать торрент  


District 9Район №9

Информация о фильме
  • Год выхода: 2009
  • Cтрана: США
  • Жанр:фантастика, боевик, триллер, драма
  • Продолжительность: 01:52:15
  • Перевод
    Профессиональный (полное дублирование)
    Авторский (одноголосый, закадровый, Сербин)
    Авторский (одноголосый, закадровый, Горчаков)
  • Режиссер: Нил Бломкамп / Neill Blomkamp
  • В ролях: Шарлто Копли, Джейсон Коуп, Натали Болтт, Сильвен Страйк, Элизабет Мкандави, Джон , Саммер, Уильям Аллен Янг, Грег Мелвилл-Смит, Ник Блейк

Описание
  • Более 20 лет назад инопланетяне установили первый контакт с Землей. Люди были готовы ко всему - от враждебного вторжения до невероятного технологического прорыва. Ни того, ни другого не произошло. Пришельцы оказались беженцами со своей собственной планеты, и пока мировое сообщество решало, что с ними делать дальше, для них был организован временный лагерь в южноафриканском Районе № 9.

Технические данные
  • Качество: BDRip 1080p
  • Формат: MKV
  • Видео кодек: H.264
  • Аудио кодек: АС3, DTS
  • Видео: 1920x1038 (1.85:1) at 23.976 fps, x264@L4.1, ~13.381 kbps avg
  • Аудио 1: Русский Дублированный; 48 kHz, AC3, 3/2 (L,C,R,l,r) + LFE ch, ~640.00 kbps avg
  • Аудио 2: Английский дубляж; 48 kHz, DTS, 3/2 (L,C,R,l,r) + LFE ch, ~1536.00 kbps avg
  • Аудио 3: Украинский дубляж; 48 kHz, AC3, 3/2 (L,C,R,l,r) + LFE ch, ~640.00 kbps avg
  • Аудио 4: Авторский одноголосый закадровый перевод, Сербин; 48 kHz, AC3, 3/2 (L,C,R,l,r) + LFE ch, ~640.00 kbps avg
  • Аудио 5: Авторский одноголосый закадровый перевод, Горчаков; 48 kHz, AC3, 3/2 (L,C,R,l,r) + LFE ch, ~448.00 kbps avg
  • Субтитры: Russian (Полные), Russian (Надписи и язык пришельцев), Ukrainian (Надписи и язык пришельцев), English (Forced), Finnish, Swedish, Danish, Dutch, Portugal, Spanish

  • Релиз от:

Код:

General
Complete name : I:\Movies\District.9.2009.1080p.BluRay.Rus.Ukr.Eng.mkv
Format : Matroska
File size : 13.6 GiB
Duration : 1h 52mn
Overall bit rate : 17.3 Mbps
Movie name : District 9 (2009) - Release for HDCLUB
Encoded date : UTC 2010-02-22 18:14:15
Writing application : mkvmerge v3.2.0 ('Beginnings') built on Feb 12 2010 16:46:17
Writing library : libebml v0.7.9 + libmatroska v0.8.1
Cover : Yes / Yes / Yes / Yes / Yes

Video
ID : 1
Format : AVC
Format/Info : Advanced Video Codec
Format profile : High@L4.1
Format settings, CABAC : Yes
Format settings, ReFrames : 4 frames
Muxing mode : Container profile=Unknown@4.1
Codec ID : V_MPEG4/ISO/AVC
Duration : 1h 52mn
Bit rate : 13.0 Mbps
Nominal bit rate : 13.4 Mbps
Width : 1 920 pixels
Height : 1 038 pixels
Display aspect ratio : 1.850
Frame rate : 23.976 fps
Resolution : 8 bits
Colorimetry : 4:2:0
Scan type : Progressive
Bits/(Pixel*Frame) : 0.272
Stream size : 10.2 GiB (75%)
Title : Release for HDCLUB
Writing library : x264 core 79 r1352M d487de4
Encoding settings : cabac=1 / ref=5 / deblock=1:-3:-3 / analyse=0x3:0x133 / me=esa / subme=10 / psy=1 / psy_rd=1.2:0.0 / mixed_ref=1 / me_range=16 / chroma_me=1 / trellis=2 / 8x8dct=1 / cqm=0 / deadzone=21,11 / chroma_qp_offset=-2 / threads=6 / nr=0 / decimate=0 / mbaff=0 / constrained_intra=0 / bframes=5 / b_pyramid=1 / b_adapt=2 / b_bias=0 / direct=3 / wpredb=1 / wpredp=2 / keyint=250 / keyint_min=25 / scenecut=40 / rc=2pass / mbtree=0 / bitrate=13380 / ratetol=1.0 / qcomp=0.60 / qpmin=10 / qpmax=51 / qpstep=4 / cplxblur=20.0 / qblur=0.5 / ip_ratio=1.40 / pb_ratio=1.30 / aq=1:0.80 / pulldown=0 / nal_hrd=0
Language : English

Audio #1
ID : 2
Format : AC-3
Format/Info : Audio Coding 3
Codec ID : A_AC3
Duration : 1h 52mn
Bit rate mode : Constant
Bit rate : 640 Kbps
Channel(s) : 6 channels
Channel positions : Front: L C R, Surround: L R, LFE
Sampling rate : 48.0 KHz
Stream size : 515 MiB (4%)
Title : AC3 5.1 640 Kbps [Русский дубляж]
Language : Russian

Audio #2
ID : 3
Format : AC-3
Format/Info : Audio Coding 3
Codec ID : A_AC3
Duration : 1h 52mn
Bit rate mode : Constant
Bit rate : 640 Kbps
Channel(s) : 6 channels
Channel positions : Front: L C R, Surround: L R, LFE
Sampling rate : 48.0 KHz
Stream size : 515 MiB (4%)
Title : AC3 5.1 640 Kbps [Сербин]
Language : Russian

Audio #3
ID : 4
Format : AC-3
Format/Info : Audio Coding 3
Codec ID : A_AC3
Duration : 1h 52mn
Bit rate mode : Constant
Bit rate : 448 Kbps
Channel(s) : 6 channels
Channel positions : Front: L C R, Surround: L R, LFE
Sampling rate : 48.0 KHz
Video delay : 18ms
Stream size : 361 MiB (3%)
Title : AC3 5.1 448 Kbps [Горчаков]
Language : Russian

Audio #4
ID : 5
Format : AC-3
Format/Info : Audio Coding 3
Codec ID : A_AC3
Duration : 1h 52mn
Bit rate mode : Constant
Bit rate : 640 Kbps
Channel(s) : 6 channels
Channel positions : Front: L C R, Surround: L R, LFE
Sampling rate : 48.0 KHz
Stream size : 515 MiB (4%)
Title : AC3 5.1 640 Kbps [Украинский дубляж]
Language : Ukrainian

Audio #5
ID : 6
Format : DTS
Format/Info : Digital Theater Systems
Codec ID : A_DTS
Duration : 1h 52mn
Bit rate mode : Constant
Bit rate : 1 510 Kbps
Channel(s) : 6 channels
Channel positions : Front: L C R, Surround: L R, LFE
Sampling rate : 48.0 KHz
Resolution : 24 bits
Stream size : 1.19 GiB (9%)
Title : DTS 5.1 1536 Kbps [Original]
Language : English

Audio #6
ID : 7
Format : Vorbis
Format settings, Floor : 1
Codec ID : A_VORBIS
Duration : 1h 52mn
Bit rate mode : Constant
Bit rate : 80.0 Kbps
Channel(s) : 2 channels
Sampling rate : 48.0 KHz
Stream size : 64.4 MiB (0%)
Title : OGG 2.0 80 Kbps [Commentary by Neill Blomkamp]
Writing library : libVorbis 1.1.1/1.1.2 (UTC 2005-03-04)
Language : English

Text #1
ID : 8
Format : UTF-8
Codec ID : S_TEXT/UTF8
Codec ID/Info : UTF-8 Plain Text
Title : Надписи и пр.
Language : Russian

Text #2
ID : 9
Format : UTF-8
Codec ID : S_TEXT/UTF8
Codec ID/Info : UTF-8 Plain Text
Title : Полные
Language : Russian

Text #3
ID : 10
Format : UTF-8
Codec ID : S_TEXT/UTF8
Codec ID/Info : UTF-8 Plain Text
Title : Надписи и пр.
Language : Ukrainian

Text #4
ID : 11
Format : ASS
Codec ID : S_TEXT/ASS
Codec ID/Info : Advanced Sub Station Alpha
Title : Forced
Language : English

Text #5
ID : 12
Format : ASS
Codec ID : S_TEXT/ASS
Codec ID/Info : Advanced Sub Station Alpha
Language : English

Text #6
ID : 13
Format : ASS
Codec ID : S_TEXT/ASS
Codec ID/Info : Advanced Sub Station Alpha
Title : Commentary
Language : English

Text #7
ID : 14
Format : ASS
Codec ID : S_TEXT/ASS
Codec ID/Info : Advanced Sub Station Alpha
Language : Czech

Text #8
ID : 15
Format : ASS
Codec ID : S_TEXT/ASS
Codec ID/Info : Advanced Sub Station Alpha
Language : Dutch

Text #9
ID : 16
Format : ASS
Codec ID : S_TEXT/ASS
Codec ID/Info : Advanced Sub Station Alpha
Language : Finnish

Text #10
ID : 17
Format : ASS
Codec ID : S_TEXT/ASS
Codec ID/Info : Advanced Sub Station Alpha
Language : Hungarian

Text #11
ID : 18
Format : ASS
Codec ID : S_TEXT/ASS
Codec ID/Info : Advanced Sub Station Alpha
Language : Swedish



  • Бюджет: $30 000 000
  • Cборы в мире: $210 808 264

,


pb.wtf



Скачать Район №9 через торрент http://i32.fastpic.ru/big/2011/1129/97/b9a1bd80b8dacdd23d1a27dbc5172297.png Скачать фильм Район №9 через торрент бесплантно в хорошем качестве ОписаниеБолее 20 лет назад инопланетяне установили первый контакт с Землей. Люди были готовы ко всему - от враждебного вторжения до ... 10 10 5
Info! Золотая раздача, скачанное не засчитывается.
Торрент: Зарегистрирован [2011-11-29 11:28] · скачан: 123 раз
Статус: √ проверено
Размер: 13.59 GB
Как cкачать? Как скачать Район №9 через торрент | qTorrent

% Раздел Тема Автор DL S | L
Ultra HD (UHD: 2K, 4K, 8K) — видео сверхвысокой чёткости [ 55.07 GB ] Район №9 / District 9 [2009 UHD Blu-Ray EUR 2160p] DUB [] bober100 Скачать
2 | 0
Ultra HD (UHD: 2K, 4K, 8K) — видео сверхвысокой чёткости [ 43.89 GB ] Район №9 / District 9 [2009 UHD BDRemux 2160p] DUB [] +4xAVO bober100 Скачать
1 | 0
Фильмы (HD 720p, 1080p) (48-60 fps) [ 12.99 GB ] Район №9 / District 9 [2009 Новая Зеландия ЮАР BDRip 1080p / 60 FPS ] Tiberiumsun69 Скачать
1 | 0
Ultra HD (UHD: 2K, 4K, 8K) — видео сверхвысокой чёткости [ 23.66 GB ] Район №9 / District 9 [2009 UHD WEBRip 2160p] DUB [] + 4xAVO sheker187 Скачать
1 | 0
Фильмы [HD 720p, 1080p] (Хороший звук DUB, MVO) [ 8.87 GB ] Район №9 / District 9 [2009 BDRip 1080p] DUB [] + 3xAVO sheker187 Скачать
1 | 0
Фильмы 2009 [ 1.45 GB ] Район №9 / District 9 [2009 BDRip DUB + DUB] bogyn Скачать
1 | 0
Фильмы (HD 720p, 1080p) (48-60 fps) [ 10.67 GB ] Район №9 / District 9 [2009 BDRip 720p] 60 fps Weliar Скачать
1 | 0

28-11-2019 20:33  

Отключить всю рекламу на сайте

29-11-2011 13:57 Район №9 Скачать торрент  

:hmmmpb.wtf



29-11-2011 16:07 Район №9 Скачать торрент  

кино на любителя мне понравилось pb.wtf



22-04-2012 04:25 Район №9 Скачать торрент  

зайдите на загрузку ктонить плзpb.wtf



    Дорогой пользователь! Огромная просьба, поблагодарите релизера, оцените раздачу и оставьте свои комментарий, если Вы скачали Район №9 через торрент бесплатно! Внесите свою лепту в развитие PiratBit!
    Комментировать посты могут только пользователи прошедшие не сложную регистрацию
    Показать сообщения:    

    Район №9 через торрент
    Скачать бесплатно Район №9
    Район №9 скачать торрент
    Район №9 смотреть онлайн
    Cкачать фильм Район №9 бесплатно
    Район №9 скачать торрент в хорошем качестве
    Район №9 смотреть онлайн бесплатно в хорошем качестве


    Вы не можете начинать темы
    Вы не можете отвечать на сообщения
    Вы не можете редактировать свои сообщения
    Вы не можете удалять свои сообщения
    Вы не можете голосовать в опросах
    Вы не можете прикреплять файлы к сообщениям
    Вы можете скачивать файлы