Всегда рабочее зеркало без VPN и Proxy просто перед .vidak.icu напиши любое слово или цифру, Пример http://d9du.vidak.icu

MVO

2 сезон

2 сезон

1

1 сезон

iTunes

2 сезон

13

1 сезон

Распродажа

pack

Рекомендуем

Пиратка

30

ВАЖНО

RePack

MK11

RePack

jed

RePack

fifa19

RePack

RDR2

RePack

NEED FOR SPEED™ PAYBACK

Кинопоиск HD

6 сезон

 Острые козырьки 6 сезон

Все сериалы

все сериалы на PB.wtf

RePack

FAR CRY 5

Anonymous, нам критически не хватает 5601 руб. на оплату серверов и переферии за Апрель, помоги нам пожалуйста, вся надежда только на тебя. В благодарность мы отключим тебе всю рекламу на сайте!

×
  
Magnet ссылка

Пандорум / Pandorum (Кристиан Алверт) [2009 г.,Ужасы, фантастика, триллер, BDRip 1080p] pb.wtf

Пандорум через торрент pb.wtf

Размер: 12.47 GB | Добавлен: 10 лет назад | Торрент скачан:0 раз
Смотреть онлайн Пандорум | Скачать    Ребята, помогите собрать деньги на оплату серверов!!!

01-12-2011 03:29 Пандорум Скачать торрент  


ПандорумPandorum

Информация о фильме
  • Год выхода: 2009
  • Cтрана: Германия, США
  • Жанр:Ужасы, фантастика, триллер
  • Продолжительность: 01:47:52
  • Перевод
    Профессиональный (полное дублирование)
    Многоголосый закадровый, R5
    Одноголосый закадровый (Ю.Немахов)
  • Режиссер: Кристиан Алверт / Christian Alvart
  • В ролях: Деннис Куэйд, Бен Фостер, Кэм Жиганде, Антье Трое, Кунг Ле, Эдди Роус, Норман Ридус, Андре Хеннике, Фридерике Кемптер, Нильс-Бруно Шмидт

Описание
  • В безднах космоса движется звездолет. Два члена команды, пробудившиеся от гиперсна, оказываются в сложной ситуации: оборудование не работает, вспомнить они ничего не могут. Какова была их миссия? Сколько времени прошло? Где они? Кто они? На все эти вопросы у них нет ответов. К тому же, на корабле обнаруживаются чужие — злобные воины, которые крушат все на своем пути.
    У космических путешественников очень мало времени. Теперь для них собственные жизни — не самое главное, ибо только от них двоих, возможно, зависит спасение человечества. Нужно любой ценой восстановить управление кораблем, пока загадочный Пандорум не взял Влacть в свои руки.

Технические данные
  • Качество: BDRip 1080p
  • Формат: MKV
  • Видео кодек: H.264
  • Аудио кодек: АС3, DTS
  • Видео: 1920x816 [AR 2.35:1] at 24.000 fps (True24p), x264 [LVL4.1][DXVA], ~12.530 kbps avg
  • Аудио 1: Русский Дублированный; 48 kHz, AC3, 3/2 (L,C,R,l,r) + LFE ch, ~384.00 kbps avg
  • Аудио 2: Английский дубляж; 48 kHz, DTS, 3/2 (L,C,R,l,r) + LFE ch, ~1536.00 kbps avg
  • Аудио 3: Украинский (Многоголосый закадровый, R5); 48 kHz, AC3, 3/2 (L,C,R,l,r) + LFE ch, ~384.00 kbps avg
  • Аудио 4: Авторский одноголосый закадровый, Ю.Немахов; 48 kHz, DTS, 3/2 (L,C,R,l,r) + LFE ch, ~1536.00 kbps avg
  • Аудио 5: English: Commentary with Director Christian Alvart and Producer Jeremy Bolt; 48 kHz, AC3, 2/0 (L,R) ch, ~224.00 kbps avg
  • Субтитры: Russian, English, Ukrainian (на моменты без перевода)

  • Релиз от:

Код:

General
Complete name : D:\Pandorum.2009.1080p.BluRay.2xRus.Ukr.Eng.HDCLUB.mkv
Format : Matroska
File size : 12.5 GiB
Duration : 1h 47mn
Overall bit rate : 16.5 Mbps
Movie name : Pandorum (2009) - Release for HDCLUB
Encoded date : UTC 2010-06-27 21:06:28
Writing application : mkvmerge v3.3.0 ('Language') built on Mar 24 2010 14:59:24
Writing library : libebml v0.8.0 + libmatroska v0.9.0

Video
ID : 1
Format : AVC
Format/Info : Advanced Video Codec
Format profile : High@L4.1
Format settings, CABAC : Yes
Format settings, ReFrames : 5 frames
Muxing mode : Container profile=Unknown@4.1
Codec ID : V_MPEG4/ISO/AVC
Duration : 1h 47mn
Bit rate : 12.2 Mbps
Nominal bit rate : 12.7 Mbps
Width : 1 920 pixels
Height : 816 pixels
Display aspect ratio : 2.35:1
Frame rate : 24.000 fps
Resolution : 8 bits
Colorimetry : 4:2:0
Scan type : Progressive
Bits/(Pixel*Frame) : 0.324
Stream size : 9.19 GiB (74%)
Title : Release for HDCLUB
Writing library : x264 core 80 r1376M 3feaec2
Encoding settings : cabac=1 / ref=5 / deblock=1:-3:-3 / analyse=0x3:0x113 / me=umh / subme=9 / psy=1 / psy_rd=1.2:0.0 / mixed_ref=1 / me_range=24 / chroma_me=1 / trellis=2 / 8x8dct=1 / cqm=0 / deadzone=21,11 / fast_pskip=0 / chroma_qp_offset=-2 / threads=12 / sliced_threads=0 / nr=0 / decimate=0 / mbaff=0 / constrained_intra=0 / bframes=8 / b_pyramid=2 / b_adapt=2 / b_bias=-1 / direct=3 / wpredb=1 / wpredp=2 / keyint=250 / keyint_min=25 / scenecut=40 / rc_lookahead=80 / rc=2pass / mbtree=1 / bitrate=12670 / ratetol=1000000000.0 / qcomp=0.80 / qpmin=10 / qpmax=51 / qpstep=4 / cplxblur=20.0 / qblur=0.5 / ip_ratio=1.10 / aq=1:0.70 / zones=37382,37444,b=0.52/44615,45036,b=0.85
Language : English

Audio #1
ID : 2
Format : AC-3
Format/Info : Audio Coding 3
Codec ID : A_AC3
Duration : 1h 47mn
Bit rate mode : Constant
Bit rate : 384 Kbps
Channel(s) : 6 channels
Channel positions : Front: L C R, Side: L R, LFE
Sampling rate : 48.0 KHz
Stream size : 296 MiB (2%)
Title : AC3 5.1 @ 384 kbps - Дублированный
Language : Russian

Audio #2
ID : 3
Format : AC-3
Format/Info : Audio Coding 3
Codec ID : A_AC3
Duration : 1h 47mn
Bit rate mode : Constant
Bit rate : 384 Kbps
Channel(s) : 6 channels
Channel positions : Front: L C R, Side: L R, LFE
Sampling rate : 48.0 KHz
Stream size : 296 MiB (2%)
Title : AC3 5.1 @ 384 kbps - Многоголосый закадровый
Language : Ukrainian

Audio #3
ID : 4
Format : DTS
Format/Info : Digital Theater Systems
Codec ID : A_DTS
Duration : 1h 47mn
Bit rate mode : Constant
Bit rate : 1 510 Kbps
Channel(s) : 6 channels
Channel positions : Front: L C R, Side: L R, LFE
Sampling rate : 48.0 KHz
Resolution : 16 bits
Stream size : 1.14 GiB (9%)
Title : DTS 5.1 @ 1536 kbps - Одноголосый закадровый, Ю.Немахов
Language : Russian

Audio #4
ID : 5
Format : DTS
Format/Info : Digital Theater Systems
Codec ID : A_DTS
Duration : 1h 47mn
Bit rate mode : Constant
Bit rate : 1 510 Kbps
Channel(s) : 6 channels
Channel positions : Front: L C R, Side: L R, LFE
Sampling rate : 48.0 KHz
Resolution : 24 bits
Stream size : 1.14 GiB (9%)
Title : DTS 5.1 @ 1536 kbps
Language : English

Audio #5
ID : 6
Format : AC-3
Format/Info : Audio Coding 3
Codec ID : A_AC3
Duration : 1h 47mn
Bit rate mode : Constant
Bit rate : 224 Kbps
Channel(s) : 2 channels
Channel positions : Front: L R
Sampling rate : 48.0 KHz
Stream size : 173 MiB (1%)
Title : AC3 2.0 @ 224 kbps - Комментарии
Language : English

Text #1
ID : 7
Format : UTF-8
Codec ID : S_TEXT/UTF8
Codec ID/Info : UTF-8 Plain Text
Language : Russian

Text #2
ID : 8
Format : UTF-8
Codec ID : S_TEXT/UTF8
Codec ID/Info : UTF-8 Plain Text
Title : На моменты без переревода.
Language : Ukrainian

Text #3
ID : 9
Format : UTF-8
Codec ID : S_TEXT/UTF8
Codec ID/Info : UTF-8 Plain Text
Language : English

Menu #1
00:00:00.000 : en:00:00:00.000
00:04:36.083 : en:00:04:36.083
00:07:32.208 : en:00:07:32.208
00:13:53.417 : en:00:13:53.417
00:18:54.042 : en:00:18:54.042
00:24:03.542 : en:00:24:03.542
00:28:36.958 : en:00:28:36.958
00:34:46.417 : en:00:34:46.417
00:39:20.333 : en:00:39:20.333
00:45:37.667 : en:00:45:37.667
00:53:21.250 : en:00:53:21.250
00:59:53.000 : en:00:59:53.000
01:08:46.417 : en:01:08:46.417
01:14:05.292 : en:01:14:05.292
01:20:54.958 : en:01:20:54.958
01:28:04.708 : en:01:28:04.708
01:36:42.917 : en:01:36:42.917
01:41:20.125 : en:01:41:20.125

Menu #2
00:00:00.000 : en:00:00:00.000
00:04:36.083 : en:00:04:36.083
00:07:32.208 : en:00:07:32.208
00:13:53.417 : en:00:13:53.417
00:18:54.042 : en:00:18:54.042
00:24:03.542 : en:00:24:03.542
00:28:36.958 : en:00:28:36.958
00:34:46.417 : en:00:34:46.417
00:39:20.333 : en:00:39:20.333
00:45:37.667 : en:00:45:37.667
00:53:21.250 : en:00:53:21.250
00:59:53.000 : en:00:59:53.000
01:08:46.417 : en:01:08:46.417
01:14:05.292 : en:01:14:05.292
01:20:54.958 : en:01:20:54.958
01:28:04.708 : en:01:28:04.708
01:36:42.917 : en:01:36:42.917
01:41:20.125 : en:01:41:20.125


  • Фильм снимался на знаменитой студии Бабельсберг в Берлине, где ещё Фриц Ланг создавал свой «Метрополис».
  • На Западе фильм показывали в кинотеатрах с поддержкой D-Box. Это система вибраций и движений, которая монтируется в кресло и позволяет глубже погрузится в действие.


  • Бюджет: $33 000 000
  • Cборы в мире: $20 632 452

,

скриншот   скриншот   скриншот  

pb.wtf



Скачать Пандорум через торрент http://i29.fastpic.ru/big/2011/1201/be/784646c4030db26e6bc5812491c598be.png Скачать, смотреть онлайн Пандорум бесплантно в хорошем качестве ОписаниеВ безднах космоса движется звездолет. Два члена команды, пробудившиеся от гиперсна, оказываются в сложной ситуации: оборудование не ... 10 10 4
Info! Золотая раздача, скачанное не засчитывается.
Торрент: Зарегистрирован [2011-12-01 03:29] · скачан: 0 раз
Статус: √ проверено
Размер: 12.47 GB
Как cкачать? Как скачать Пандорум через торрент | UTorrent

% Раздел Тема Автор DL S | L
Фильмы [HD 720p, 1080p] (Хороший звук DUB, MVO) [ 4.65 GB ] Пандорум / Pandorum [2009 BDRip 1080p HEVC ] Мичман37 Скачать
1 | 0
Фильмы [HD 720p, 1080p] (Хороший звук DUB, MVO) [ 7.95 GB ] Пандорум / Pandorum [2009 BDRip 720p ] DUB AVO potroks Скачать
1 | 0
Фильмы [HD 720p, 1080p] (Хороший звук DUB, MVO) [ 19.82 GB ] Пандорум / Pandorum [2009 BDRip 1080p by msltel] DUB 3 x AVO / Open Matte msltel Скачать
1 | 0
Фильмы [HD 720p, 1080p] (Хороший звук DUB, MVO) [ 6.49 GB ] Пандорум / Pandorum [2009 BDRip 720p by msltel] DUB 3 x AVO / Open Matte msltel Скачать
1 | 0
Фильмы (HD 720p, 1080p) (48-60 fps) [ 11.14 GB ] Пандорум / Pandorum [2009 BDRip 1080p 60fps] DUB от R.G. HD-Films Бавария Скачать
2 | 0
T Релизы по Парсеру [Игры, Сериалы и Фильмы и другое...] [ 1.45 GB ] Пандорум / Pandorum [2009 Германия BDRip] Dub sanekbest1 Скачать
1 | 0
Фильмы 2009 [ 1.46 GB ] Пандорум / Pandorum [2009 HDRip] Venxxx Скачать
1 | 0

28-11-2019 20:33  

Отключить всю рекламу на сайте

01-12-2011 09:23 Пандорум Скачать торрент  

не очень фильмец
pb.wtf



20-01-2014 19:25 Пандорум Скачать торрент  

Охрененный фильм!pb.wtf



15-04-2016 20:53 Пандорум Скачать торрент  

На раздаче никого...pb.wtf



    Дорогой пользователь! Огромная просьба, поблагодарите релизера, оцените раздачу и оставьте свои комментарий, если Вы скачали Пандорум через торрент бесплатно!
    Комментировать посты могут только пользователи прошедшие не сложную регистрацию
    Показать сообщения:    

    Пандорум через торрент
    Скачать бесплатно Пандорум
    Пандорум скачать торрент
    Пандорум смотреть онлайн
    Cкачать фильм Пандорум бесплатно
    Пандорум скачать торрент в хорошем качестве
    Пандорум смотреть онлайн бесплатно в хорошем качестве


    Вы не можете начинать темы
    Вы не можете отвечать на сообщения
    Вы не можете редактировать свои сообщения
    Вы не можете удалять свои сообщения
    Вы не можете голосовать в опросах
    Вы не можете прикреплять файлы к сообщениям
    Вы можете скачивать файлы