Всегда рабочее зеркало без VPN и Proxy просто перед .vidak.icu напиши любое слово или цифру, Пример http://ms74.vidak.icu

MVO

MVO

1 сезон

1

1 сезон

iTunes

1 сезон

13

1 сезон

Deluxe

pack

Рекомендуем

Repack

30

ВАЖНО

RePack

MK11

RePack

jed

RePack

fifa19

RePack

RDR2

RePack

NEED FOR SPEED™ PAYBACK

Кинопоиск HD

6 сезон

 Острые козырьки 6 сезон

Все сериалы

все сериалы на PB.wtf

RePack

FAR CRY 5
  
Magnet ссылка

Успеть за 30 минут / За 30 минут или быстрее / 30 Minutes or Less (Рубен Фляйшер / Ruben Fleischer) [2011, США, боевик, комедия, приключения, HDRip] VO (А. Киреев по переводу Гоблина) Sub Rus + Original Eng pb.wtf

Успеть за 30 минут через торрент pb.wtf

Размер: 1.63 GB | Добавлен: 10 лет назад | Торрент скачан:422 раза
Смотреть онлайн Успеть за 30 минут | Скачать    Ребята, помогите собрать деньги на оплату серверов!!!

01-12-2011 14:24 Успеть за 30 минут Скачать торрент  

[font="Georgia"]Успеть за 30 минут / За 30 минут или быстрее / 30 Minutes or Less

Страна: США
Жанр: боевик, комедия, приключения
Год выпуска: 2011
Продолжительность: 1:23:02
Перевод: Одноголосый закадровый /А. Киреев по переводу Дмитрия Goblin'a Пучкова/
Cубтитры: русские
Оригинальная аудиодорожка: английский
Режиссер: Рубен Фляйшер / Ruben Fleischer
В ролях:
Азиз Ансари, Ник Свардсон, Дилшэд Вэдсариа, Джесси Айзенберг, Дэнни МакБрайд, Майкл Пенья, Бьянка Кайлич, Фред Уорд и др.
Описание:
Два другана, Ник и Чет, недавно закончили школу. Чет работает учителем, а Ник курит дурь, развозит пиццу и тайно встречается с сестрой-близняшкой Чета. Их жизнь круто меняется, когда два других придурка, Дуэйн и Трэвис, похищают Ника и привязывают к нему бомбу, чтобы заставить ограбить банк.
Убойная комедия от режиссёра фильма "Добро пожаловать в Зомбилэнд" и создателей "Храбрых перцем", "Продавца" и других замечательных картин. Любителям комедий — строго обязательно к просмотру.


Качество видео: HDRip (исходник неизвестен) /совместим с бытовыми плеерами/ Формат видео: AVI
Видео: 720x304 (2.35:1), 23.976 fps, XviD MPEG-4 ~1901 kbps avg, 0.36 bit/pixel
Аудио #1: Russian 48,0 kHz, AC3 Dolby Digital, 3/2 (L,C,R,l,r) + LFE ch, ~448 kbps avg
Аудио #2: English 48,0 kHz, AC3 Dolby Digital, 3/2 (L,C,R,l,r) + LFE ch, ~448 kbps avg
Формат субтитров: softsub (SRT)
Формат : AVI
Формат/Информация : Audio Video Interleave
Размер файла : 1,63 Гбайт
Продолжительность : 1 ч. 23 м.
Общий поток : 2813 Кбит/сек
Программа кодирования : VirtualDubMod 1.5.10.2 (build 2540/release)
Библиотека кодирования : VirtualDubMod build 2540/release

Видео
Идентификатор : 0
Формат : MPEG-4 Visual
Профиль формата : Advanced [email protected]
Параметр BVOP формата : 2
Параметр QPel формата : Нет
Параметр GMC формата : Без точки перехода
Параметр матрицы формата : Выборочная
Идентификатор кодека : XVID
Идентификатор кодека/Подсказка : XviD
Продолжительность : 1 ч. 23 м.
Битрейт : 1903 Кбит/сек
Ширина : 720 пикс.
Высота : 304 пикс.
Соотношение сторон : 2,35:1
Частота кадров : 23,976 кадр/сек
Цветовое пространство : YUV
Подвыборка цветности : 4:2:0
Битовая глубина : 8 бит
Тип развёртки : Прогрессивная
Метод сжатия : С потерями
Бит/(Пиксели*Кадры) : 0.363
Размер потока : 1,10 Гбайт (68%)
Библиотека кодирования : XviD 58

Аудио #1
Идентификатор : 1
Формат : AC-3
Формат/Информация : Audio Coding 3
Расширение режима : CM (complete main)
Идентификатор кодека : 2000
Продолжительность : 1 ч. 23 м.
Вид битрейта : Постоянный
Битрейт : 448 Кбит/сек
Каналы : 6 каналов
Расположение каналов : Front: L C R, Side: L R, LFE
Частота : 48,0 КГц
Битовая глубина : 16 бит
Метод сжатия : С потерями
Размер потока : 266 Мбайт (16%)
Выравнивание : Разделение по промежуткам
Продолжительность промежутка : 42 мс. (1,00 видеокадр)
Время предзагрузки промежутка : 500 ms

Аудио #2
Идентификатор : 2
Формат : AC-3
Формат/Информация : Audio Coding 3
Расширение режима : CM (complete main)
Идентификатор кодека : 2000
Продолжительность : 1 ч. 23 м.
Вид битрейта : Постоянный
Битрейт : 448 Кбит/сек
Каналы : 6 каналов
Расположение каналов : Front: L C R, Side: L R, LFE
Частота : 48,0 КГц
Битовая глубина : 16 бит
Метод сжатия : С потерями
Размер потока : 266 Мбайт (16%)
Выравнивание : Разделение по промежуткам
Продолжительность промежутка : 42 мс. (1,00 видеокадр)
Время предзагрузки промежутка : 500 ms

скриншот  
скриншот  
скриншот  
скриншот  
скриншот  

pb.wtf



Скачать Успеть за 30 минут через торрент https://pic1.kartinco.top/images/2011/6jjx1oq75k.jpg Скачать, смотреть онлайн Успеть за 30 минут бесплантно в хорошем качестве Описание: Два другана, Ник и Чет, недавно закончили школу. Чет работает учителем, а Ник курит дурь, развозит пиццу и тайно встречается с ... 10 10 4
Info! Золотая раздача, скачанное не засчитывается.
Торрент: Зарегистрирован [2011-12-01 14:24] · скачан: 422 раз
Статус: √ проверено
Размер: 1.63 GB
Как cкачать? Как скачать Успеть за 30 минут через торрент | UTorrent



Последний раз редактировалось: danii (2012-03-02 02:02), всего редактировалось 2 раз(а)

28-11-2019 20:33  

Отключить вcю реклaмy на сайте

01-12-2011 15:20 Успеть за 30 минут Скачать торрент  

Бред ((((((((((((((((((pb.wtf



13-10-2012 08:06 Успеть за 30 минут Скачать торрент  

посмотрим ради перевода Пучкова)pb.wtf



    Дорогой пользователь! Огромная просьба, поблагодарите релизера, оцените раздачу и оставьте свои комментарий, если Вы скачали Успеть за 30 минут через торрент бесплатно!
    Комментировать посты могут только пользователи прошедшие не сложную регистрацию
    Показать сообщения:    

    Успеть за 30 минут через торрент
    Скачать бесплатно Успеть за 30 минут
    Успеть за 30 минут скачать торрент
    Успеть за 30 минут смотреть онлайн
    Cкачать фильм Успеть за 30 минут бесплатно
    Успеть за 30 минут скачать торрент в хорошем качестве
    Успеть за 30 минут смотреть онлайн бесплатно в хорошем качестве


    Вы не можете начинать темы
    Вы не можете отвечать на сообщения
    Вы не можете редактировать свои сообщения
    Вы не можете удалять свои сообщения
    Вы не можете голосовать в опросах
    Вы не можете прикреплять файлы к сообщениям
    Вы можете скачивать файлы