Ссылка на приватное зеркало нашего сайта всего за 1$. Внимание количество ограничено!!!

2 сезон

iTunes

1 сезон

1

iTunes

iTunes

iTunes

1 сезон

RePack

30

ИГРА 18+

pack

ВАЖНО

!!Акция!!

Alien_RageХит недели

RePack

MK11
pack

Забери бонус

RePack

jed

!!Акция!!

Alien_Rage

RePack

fifa19

RePack

Assassins Creed: Odyssey

RePack

NEED FOR SPEED™ PAYBACK

4 сезон

9 сезон

Бесстыжие 9 сезон

Все сериалы

все сериалы на PB.wtf

RePack

FAR CRY 5
  

Райское озеро / Eden Lake (Джеймс Уоткинс) [2008 г., триллер, драма, криминал, BDRip 720p] pb.wtf

Райское озеро через торрент pb.wtf

Размер: 4.37 GB | Добавлен: 8 лет 10 мес. назад | Торрент скачан:39 раз
Скачать  

02-12-2011 19:41 Райское озеро Скачать торрент  

Райское озеро / Eden Lake

Год выпуска: 2008
Страна: Великобритания
Жанр: триллер, драма, криминал
Продолжительность: 01:30:57
Перевод: Профессиональный (полное дублирование), Многоголосый закадровый (Украинский), Оригинальный (Английский)

Режиссер: Джеймс Уоткинс
Премьера в мире: 15 мая 2008



В ролях: Келли Райлли, Майкл Фассбендер, Тара Эллис, Джек О’Коннелл, Финн Аткинс, Джумэйн Хантер, Томас Тургус, Джеймс Берроуз, Томас Гилл, Лоррэйн Брюс

Описание: Молодая медсестра и ее бойфренд приехали на берег лесного озера, чтобы провести здесь свои выходные. В десяти метрах от их лагеря на берег вышли местные подростки, решившие сделать то же самое. Подростки не были отпетыми подонками, жертвами инцеста или генетической мутации, самое обыкновенные ублюдки из пригорода, ничего особенного. Но слово за слово, оскорбление за оскорбление и теперь уже понятно, сейчас здесь кого-то порешат и при этом в самой жестокой форме.

Качество: BDRip
Формат: MKV
Видео кодек: H.26x
Аудио кодек: AC3
Видео: 1280х544 (2,35:1), 24,000 fps, 5920 kbps, 0.354 bit/pixel
Аудио #1: 48 kHz, 16-bit, AC3 5.1, 384.00 kbps (Дубляж R5)
Аудио #2: 48 kHz, 16-bit, AC3 2.0, 192.00 kbps (Украинский 1+1)
Аудио #3: 48 kHz, 16-bit, AC3 2.0, 384.00 kbps (Английский)

&
Полное имя : D:\Eden Lake.2008.BDRip-PT.720p.mkv
Формат : Matroska
Размер файла : 4,37 Гбайт
Продолжительность : 1 ч. 30 м.
Общий поток : 6879 Кбит/сек
Название фильма : Райское озеро / Eden Lake (2008) BDRip [720p] rip by rulya74
Дата кодирования : UTC 2011-12-02 17:09:03
Программа кодирования : mkvmerge v4.8.0 ('I Got The...') сборка от May 31 2011 13:11:21
Библиотека кодирования : libebml v1.2.0 + libmatroska v1.1.0

Видео
Идентификатор : 1
Формат : AVC
Формат/Информация : Advanced Video Codec
Профиль формата : High@L4.1
Параметр CABAC формата : Да
Параметр ReFrames формата : 7 кадров
Идентификатор кодека : V_MPEG4/ISO/AVC
Продолжительность : 1 ч. 30 м.
Битрейт : 5920 Кбит/сек
Ширина : 1280 пикс.
Высота : 544 пикс.
Соотношение сторон : 2,35:1
Частота кадров : 24,000 кадр/сек
Цветовое пространство : YUV
Подвыборка цветности : 4:2:0
Битовая глубина : 8 бит
Тип развёртки : Прогрессивная
Бит/(Пиксели*Кадры) : 0.354
Размер потока : 3,67 Гбайт (84%)
Библиотека кодирования : x264 core 116 r2074 2641b9e
Настройки программы : cabac=1 / ref=7 / deblock=1:-3:-3 / analyse=0x3:0x113 / me=umh / subme=10 / psy=1 / psy_rd=1.00:0.00 / mixed_ref=1 / me_range=48 / chroma_me=1 / trellis=2 / 8x8dct=1 / cqm=0 / deadzone=21,11 / fast_pskip=1 / chroma_qp_offset=-2 / threads=3 / sliced_threads=0 / nr=0 / decimate=1 / interlaced=0 / bluray_compat=0 / constrained_intra=0 / bframes=6 / b_pyramid=2 / b_adapt=1 / b_bias=0 / direct=1 / weightb=1 / open_gop=0 / weightp=2 / keyint=250 / keyint_min=24 / scenecut=40 / intra_refresh=0 / rc_lookahead=40 / rc=2pass / mbtree=1 / bitrate=5920 / ratetol=1.0 / qcomp=0.60 / qpmin=10 / qpmax=51 / qpstep=4 / cplxblur=20.0 / qblur=0.5 / ip_ratio=1.40 / aq=1:1.00

Аудио #1
Идентификатор : 2
Формат : AC-3
Формат/Информация : Audio Coding 3
Расширение режима : CM (complete main)
Идентификатор кодека : A_AC3
Продолжительность : 1 ч. 30 м.
Вид битрейта : Постоянный
Битрейт : 384 Кбит/сек
Каналы : 6 каналов
Расположение каналов : Front: L C R, Side: L R, LFE
Частота : 48,0 КГц
Битовая глубина : 16 бит
Метод сжатия : С потерями
Размер потока : 250 Мбайт (6%)
Заголовок : Дубляж [R5]
Язык : Russian

Аудио #2
Идентификатор : 3
Формат : AC-3
Формат/Информация : Audio Coding 3
Расширение режима : CM (complete main)
Идентификатор кодека : A_AC3
Продолжительность : 1 ч. 30 м.
Вид битрейта : Постоянный
Битрейт : 192 Кбит/сек
Каналы : 2 канала
Расположение каналов : Front: L R
Частота : 48,0 КГц
Битовая глубина : 16 бит
Метод сжатия : С потерями
Размер потока : 125 Мбайт (3%)
Заголовок : Двухголосый (1+1)
Язык : Ukrainian

Аудио #3
Идентификатор : 4
Формат : AC-3
Формат/Информация : Audio Coding 3
Расширение режима : CM (complete main)
Идентификатор кодека : A_AC3
Продолжительность : 1 ч. 30 м.
Вид битрейта : Постоянный
Битрейт : 384 Кбит/сек
Каналы : 6 каналов
Расположение каналов : Front: L C R, Side: L R, LFE
Частота : 48,0 КГц
Битовая глубина : 16 бит
Метод сжатия : С потерями
Размер потока : 250 Мбайт (6%)
Заголовок : Оригинал
Язык : English
pb.wtf



Скачать Райское озеро через торрент http://lostpic.net/images/cbacab9ade82670e27cd87e74c7cdd81.png Скачать фильм Райское озеро через торрент бесплантно в хорошем качестве Описание: Молодая медсестра и ее бойфренд приехали на берег лесного озера, чтобы провести здесь свои выходные. В десяти метрах от их лагеря ... 8 10 1
Info! Золотая раздача, скачанное не засчитывается.
Торрент: Зарегистрирован [2011-12-02 19:41] · скачан: 39 раз
Статус: √ проверено
Размер: 4.37 GB
Как cкачать? Как скачать Райское озеро через торрент | qTorrent

% Раздел Тема Автор DL S | L
Фильмы (WEB-DL 720p, 1080p) [ 6.13 GB ] Райское озеро / Eden Lake [2008 WEB-DLRip 720p] [Open Matte] Dub + DVO + AVO - KORSAR kisa1980 Скачать
1 | 0
Фильмы (Blu-ray, BD-Remux, HDDVD) [ 14.95 GB ] Райское озеро / Eden Lake [2008 BD Remux 1080p] DUB+AVO+DVO bober100 Скачать
1 | 0
Фильмы 2006-2008 [ 2.18 GB ] Райское озеро / Eden Lake [2008 BDRip-AVC] DUB potroks Скачать
1 | 0
Фильмы 2006-2008 [ 1.7 GB ] Райское озеро / Eden Lake [2008 BDRip] snouman82 Скачать
1 | 0
Фильмы 2006-2008 [ 1.37 GB ] Райское озеро / Eden Lake [2008 DVDRip] frostboy Скачать
1 | 0
Фильмы 2006-2008 [ 744 MB ] Райское озеро / Eden Lake [2008 BDRip] Venxxx Скачать
1 | 0
Фильмы [HD 720p, 1080p] (Хороший звук DUB, MVO) [ 7.54 GB ] Райское озеро / Eden Lake [2008 BDRip] Flint3 Скачать
1 | 0

28-11-2019 20:33  

Отключить всю рекламу на сайте

02-12-2011 20:43 Райское озеро Скачать торрент  

шикарный фильм !!!!!!!!!!!pb.wtf



02-12-2011 23:23 Райское озеро Скачать торрент  

нетpb.wtf



11-08-2016 19:17 Райское озеро Скачать торрент  

даpb.wtf



    Дорогой пользователь! Огромная просьба, поблагодарите релизера, оцените раздачу и оставьте свои комментарий, если Вы скачали Райское озеро через торрент бесплатно! Внесите свою лепту в развитие PiratBit!
    Комментировать посты могут только пользователи прошедшие не сложную регистрацию
    Показать сообщения:    

    Райское озеро через торрент
    Скачать бесплатно Райское озеро
    Райское озеро скачать торрент
    Райское озеро смотреть онлайн
    Cкачать фильм Райское озеро бесплатно
    Райское озеро скачать торрент в хорошем качестве
    Райское озеро смотреть онлайн бесплатно в хорошем качестве


    Вы не можете начинать темы
    Вы не можете отвечать на сообщения
    Вы не можете редактировать свои сообщения
    Вы не можете удалять свои сообщения
    Вы не можете голосовать в опросах
    Вы не можете прикреплять файлы к сообщениям
    Вы можете скачивать файлы