1 сезон

3 сезон

iTunes

1

iTunes

MVO

iTunes

13

1 сезон

RePack

30

Deluxe

pack

Лицензия

ВАЖНО

ИГРА 18+

pack

RePack

MK11

RePack

jed

RePack

fifa19

RePack

RDR2

RePack

NEED FOR SPEED™ PAYBACK

4 сезон

9 сезон

Бесстыжие 9 сезон

Все сериалы

все сериалы на PB.wtf

RePack

FAR CRY 5

Anonymous, добрый день, мы катастрофически не успеваем собрать деньги на оплату серверов, помогите нам пожалуйста 5,10,15р., для нас важна любая помощь . В качестве благодарности мы отключим Вам всю рекламу на сайте (укажите свой ник в строку Ваше имя)!

×
  
Magnet ссылка

Иностранный легион / La cite (Ким Нгуйен / Kim Nguyen) [2010, драма, DVD5] R5 «Lizard Cinema Trade» pb.wtf

Иностранный легион через торрент pb.wtf

Размер: 3.56 GB | Добавлен: 9 лет 7 мес. назад | Торрент скачан:73 раза
Скачать  

03-12-2011 09:53 Иностранный легион Скачать торрент  


Иностранный легион / La cite
Страна: Канада
Студия: Shen Studios / Productions Thalie
Жанр: драма
Год выпуска: 2010
Мировая премьера: 8 февраля 2010
Дата выхода DVD: 22 ноября 2011, «Lizard Cinema Trade»
Продолжительность: 01:17:58
Перевод: Профессиональный (многоголосый закадровый) [Лицензия]
Cубтитры: русские
Оригинальная аудиодорожка: французский
Режиссер: Ким Нгуйен / Kim Nguyen
В ролях: Жан-Марк Барр, Клод Леголт, Пьер ЛеБо, Винcент Винтерхалтер, Сабина Карсенти, Francois Nadin, Lotfi Abdelli, Арби Биби, Lotfi Dziri, Abdelwaheb Jemli...
Описание: Они так хороши, потому что они добровольцы. Они избрали для себя службу в Иностранном легионе и это личный выбор каждого. Они бросили себе новый вызов в жизни и имеют все основания для того, что бы победить.
Бонусы: нет

Релиз группы:
Качество: DVD5 R5
Формат: DVD-Video
Видео кодек: MPEG2
Аудио кодек: AC3
Видео: PAL 16:9 (720x576(0.555)) MPEG Video, 25,000 кадр/сек, 5751 Кбит/сек
Аудио #1: Russian (Dolby AC3, 6 ch) 384 Кбит/сек, 48,0 КГц
Аудио #2: Russian (Dolby AC3, 2 ch) 192 Кбит/сек, 48,0 КГц
Аудио #3: Francais (Dolby AC3, 2 ch) 192 Кбит/сек, 48,0 КГц



Title: Рабочий
Size: 3.56 Gb ( 3 730 726 KBytes ) - DVD-5
Enabled regions: 1, 2, 3, 4, 5, 6, 7, 8

VTS_01 :
Play Length: 00:00:20
Video: PAL 4:3 (720x576) VBR
Audio:
Russian (Dolby AC3, 2 ch)
English (Dolby AC3, 6 ch)
English (Dolby AC3, 6 ch)

VTS_02 :
Play Length: 01:17:58
Video: PAL 16:9 (720x576) VBR, Auto Pan&Scan, Auto Letterboxed
Audio:
Russian (Dolby AC3, 6 ch)
Russian (Dolby AC3, 2 ch)
Francais (Dolby AC3, 2 ch)
Subtitles:
Russian
Общее
Полное имя : G:\Новинки 2011\Inostrannyi legion.2010.DVD5\VIDEO_TS\VTS_02_1.VOB
Формат : MPEG-PS
Размер файла : 1024 Мбайт
Продолжительность : 21 м.
Общий поток : 6651 Кбит/сек

Видео
Идентификатор : 224 (0xE0)
Формат : MPEG Video
Версия формата : Version 2
Профиль формата : Main@Main
Параметр BVOP формата : Да
Параметр матрицы формата : Выборочная
Параметр GOP формата : M=3, N=12
Продолжительность : 21 м.
Вид битрейта : Переменный
Битрейт : 5751 Кбит/сек
Максимальный битрейт : 8000 Кбит/сек
Ширина : 720 пикселей
Высота : 576 пикселей
Соотношение сторон : 16:9
Частота кадров : 25,000 кадров/сек
Стандарт вещания : PAL
Цветовое пространство : YUV
Субдискретизация насыщенности : 4:2:0
Битовая глубина : 8 бит
Тип развёртки : Чересстрочная
Порядок развёртки : Верхнее поле первое
Метод сжатия : С потерями
Бит/(Пиксели*Кадры) : 0.555
Размер потока : 885 Мбайт (86%)

Аудио #1
Идентификатор : 189 (0xBD)-128 (0x80)
Формат : AC-3
Формат/Информация : Audio Coding 3
Расширение режима : CM (complete main)
Режим смешивания : DVD-Video
Продолжительность : 21 м.
Вид битрейта : Постоянный
Битрейт : 384 Кбит/сек
Каналы : 6 каналов
Расположение каналов : Front: L C R, Side: L R, LFE
Частота : 48,0 КГц
Битовая глубина : 16 бит
Метод сжатия : С потерями
Размер потока : 59,1 Мбайт (6%)

Аудио #2
Идентификатор : 189 (0xBD)-129 (0x81)
Формат : AC-3
Формат/Информация : Audio Coding 3
Расширение режима : CM (complete main)
Режим смешивания : DVD-Video
Продолжительность : 21 м.
Вид битрейта : Постоянный
Битрейт : 192 Кбит/сек
Каналы : 2 канала
Расположение каналов : Front: L R
Частота : 48,0 КГц
Битовая глубина : 16 бит
Метод сжатия : С потерями
Размер потока : 29,6 Мбайт (3%)

Аудио #3
Идентификатор : 189 (0xBD)-130 (0x82)
Формат : AC-3
Формат/Информация : Audio Coding 3
Расширение режима : CM (complete main)
Режим смешивания : DVD-Video
Продолжительность : 21 м.
Вид битрейта : Постоянный
Битрейт : 192 Кбит/сек
Каналы : 2 канала
Расположение каналов : Front: L R
Частота : 48,0 КГц
Битовая глубина : 16 бит
Метод сжатия : С потерями
Размер потока : 29,6 Мбайт (3%)










pb.wtf



Скачать Иностранный легион через торрент http://i4.imageban.ru/out/2011/12/03/d4b4492ff176e5e5ca13d1072924e076.jpg Скачать фильм Иностранный легион через торрент бесплантно в хорошем качестве Описание: Они так хороши, потому что они добровольцы. Они избрали для себя службу в Иностранном легионе и это личный выбор каждого. Они ... 4.8 10 6
Info! Золотая раздача, скачанное не засчитывается.
Торрент: Зарегистрирован [2011-12-03 09:53] · скачан: 73 раз
Статус: √ проверено
Размер: 3.56 GB
Как cкачать? Как скачать Иностранный легион через торрент | UTorrent

28-11-2019 20:33  

Отключить всю рекламу на сайте

    Дорогой пользователь! Огромная просьба, поблагодарите релизера, оцените раздачу и оставьте свои комментарий, если Вы скачали Иностранный легион через торрент бесплатно! Внесите свою лепту в развитие PiratBit!
    Комментировать посты могут только пользователи прошедшие не сложную регистрацию
    Показать сообщения:    

    Иностранный легион через торрент
    Скачать бесплатно Иностранный легион
    Иностранный легион скачать торрент
    Иностранный легион смотреть онлайн
    Cкачать фильм Иностранный легион бесплатно
    Иностранный легион скачать торрент в хорошем качестве
    Иностранный легион смотреть онлайн бесплатно в хорошем качестве


    Вы не можете начинать темы
    Вы не можете отвечать на сообщения
    Вы не можете редактировать свои сообщения
    Вы не можете удалять свои сообщения
    Вы не можете голосовать в опросах
    Вы не можете прикреплять файлы к сообщениям
    Вы можете скачивать файлы