1 сезон

3 сезон

iTunes

1

iTunes

MVO

iTunes

13

1 сезон

RePack

30

Deluxe

pack

Лицензия

ВАЖНО

ИГРА 18+

pack

RePack

MK11

RePack

jed

RePack

fifa19

RePack

RDR2

RePack

NEED FOR SPEED™ PAYBACK

4 сезон

9 сезон

Бесстыжие 9 сезон

Все сериалы

все сериалы на PB.wtf

RePack

FAR CRY 5

Anonymous, доброй ночи, мы катастрофически не успеваем собрать деньги на оплату серверов, помогите нам пожалуйста 5,10,15р., для нас важна любая помощь . В качестве благодарности мы отключим Вам всю рекламу на сайте (укажите свой ник в строку Ваше имя)!

×
  
Magnet ссылка

Возвращение в убежище / Return to the Hiding Place (Питер С. Спенсер / Peter C. Spencer) [2011, триллер, драма, военный, история, DVD9] R5 «New Dream media» pb.wtf

Возвращение в убежище через торрент pb.wtf

Размер: 7.17 GB | Добавлен: 9 лет 7 мес. назад | Торрент скачан:21 раз
Скачать  

03-12-2011 14:43 Возвращение в убежище Скачать торрент  


Возвращение в убежище / Return to the Hiding Place
Страна: США
Студия: 10 West Studios, Spencer Productions
Жанр: триллер, драма, военный, история
Год выпуска: 2011
Мировая премьера: 22 августа 2011
Дата выхода DVD: 24 ноября 2011, «New Dream media»
Продолжительность: 02:10:46
Перевод: Профессиональный (многоголосый закадровый) [Лицензия]
Cубтитры: нет
Оригинальная аудиодорожка: английский
Режиссер: Питер С. Спенсер / Peter C. Spencer
В ролях: Джон Рис-Дэвис, Мими Сагадин, Крэйг Роберт Янг, Дэвид Дженкинс, Рэйчел Спенсер Хьюит, Джоани Стюарт, Сьюзи Брэк, Stass Klassen, Гари Мур, Луи Лоулесс...
Описание: Голландия, конец 30-х, нацисты приходят к власти. Начинается долгая и упорная борьба тех, кто не согласен с жестокой, античеловечной политикой. В такое непростое для страны и всего мира время каждый поступает так, как может: кто-то ценой своей жизни будет говорить правду, несмотря ни на какие кровавые последствия, кто-то предаст родных и все, во что верит.
Кто-то выбирает сложный путь борьбы и сопротивления. Главные герои, студент Ганс и его друзья начинают тайно помогать евреям, которых уничтожают нацисты. Ведь молодые люди понимают, что именно отчаянные и храбрые студенты должны изменить несправедливый ход истории.

Бонусы: нет

Релиз группы:
Качество: DVD9 R5
Формат: DVD-Video
Видео кодек: MPEG2
Аудио кодек: AC3
Видео: PAL 16:9 (720x576(0.736)) MPEG Video, 25,000 кадр/сек, 7631 Кбит/сек
Аудио #1: Russian (Dolby AC3, 5 ch) 256 Кбит/сек, 48,0 КГц
Аудио #2: English (Dolby AC3, 6 ch) 256 Кбит/сек, 48,0 КГц



Title: Рабочий
Size: 7.17 Gb ( 7 517 168 KBytes ) - DVD-9
Enabled regions: 1, 2, 3, 4, 5, 6, 8

VTS_01 :
Play Length: 00:00:11
Video: PAL 16:9 (720x576) VBR, Auto Pan&Scan, Auto Letterboxed

VTS_02 :
Play Length: 02:10:46
Video: PAL 16:9 (720x576) VBR, Auto Pan&Scan, Auto Letterboxed
Audio:
Not specified (Dolby AC3, 5 ch)
Not specified (Dolby AC3, 6 ch)
Общее
Полное имя : G:\Новинки 2011\Vozvrawenie.v.ybejiwe.2011.DVD9\VIDEO_TS\VTS_02_1.VOB
Формат : MPEG-PS
Размер файла : 1024 Мбайт
Продолжительность : 17 м.
Общий поток : 8308 Кбит/сек

Видео
Идентификатор : 224 (0xE0)
Формат : MPEG Video
Версия формата : Version 2
Профиль формата : Main@Main
Параметр BVOP формата : Да
Параметр матрицы формата : Выборочная
Параметр GOP формата : M=3, N=15
Продолжительность : 17 м.
Вид битрейта : Переменный
Битрейт : 7631 Кбит/сек
Максимальный битрейт : 9000 Кбит/сек
Ширина : 720 пикселей
Высота : 576 пикселей
Соотношение сторон : 16:9
Частота кадров : 25,000 кадров/сек
Стандарт вещания : PAL
Цветовое пространство : YUV
Субдискретизация насыщенности : 4:2:0
Битовая глубина : 8 бит
Тип развёртки : Чересстрочная
Порядок развёртки : Верхнее поле первое
Метод сжатия : С потерями
Бит/(Пиксели*Кадры) : 0.736
Размер потока : 940 Мбайт (92%)

Аудио #1
Идентификатор : 189 (0xBD)-128 (0x80)
Формат : AC-3
Формат/Информация : Audio Coding 3
Расширение режима : CM (complete main)
Режим смешивания : DVD-Video
Продолжительность : 17 м.
Вид битрейта : Постоянный
Битрейт : 256 Кбит/сек
Каналы : 5 каналов
Расположение каналов : Front: L C R, Side: L R
Частота : 48,0 КГц
Битовая глубина : 16 бит
Метод сжатия : С потерями
Размер потока : 31,5 Мбайт (3%)

Аудио #2
Идентификатор : 189 (0xBD)-129 (0x81)
Формат : AC-3
Формат/Информация : Audio Coding 3
Расширение режима : CM (complete main)
Режим смешивания : DVD-Video
Продолжительность : 17 м.
Вид битрейта : Постоянный
Битрейт : 256 Кбит/сек
Каналы : 6 каналов
Расположение каналов : Front: L C R, Side: L R, LFE
Частота : 48,0 КГц
Битовая глубина : 16 бит
Метод сжатия : С потерями
Размер потока : 31,5 Мбайт (3%)










pb.wtf



Скачать Возвращение в убежище через торрент http://i2.imageban.ru/out/2011/12/03/e686c1794723a668ffd083ceafb997ad.jpg Скачать фильм Возвращение в убежище через торрент бесплантно в хорошем качестве Описание: Голландия, конец 30-х, нацисты приходят к власти. Начинается долгая и упорная борьба тех, кто не согласен с жестокой, ... 5 10 4
Info! Золотая раздача, скачанное не засчитывается.
Торрент: Зарегистрирован [2011-12-03 14:43] · скачан: 21 раз
Статус: √ проверено
Размер: 7.17 GB
Как cкачать? Как скачать Возвращение в убежище через торрент | UTorrent

28-11-2019 20:33  

Отключить всю рекламу на сайте

    Дорогой пользователь! Огромная просьба, поблагодарите релизера, оцените раздачу и оставьте свои комментарий, если Вы скачали Возвращение в убежище через торрент бесплатно! Внесите свою лепту в развитие PiratBit!
    Комментировать посты могут только пользователи прошедшие не сложную регистрацию
    Показать сообщения:    

    Возвращение в убежище через торрент
    Скачать бесплатно Возвращение в убежище
    Возвращение в убежище скачать торрент
    Возвращение в убежище смотреть онлайн
    Cкачать фильм Возвращение в убежище бесплатно
    Возвращение в убежище скачать торрент в хорошем качестве
    Возвращение в убежище смотреть онлайн бесплатно в хорошем качестве


    Вы не можете начинать темы
    Вы не можете отвечать на сообщения
    Вы не можете редактировать свои сообщения
    Вы не можете удалять свои сообщения
    Вы не можете голосовать в опросах
    Вы не можете прикреплять файлы к сообщениям
    Вы можете скачивать файлы