Ссылка на приватное зеркало нашего сайта всего за 1$. Внимание количество ограничено!!!

2 сезон

iTunes

1 сезон

1

iTunes

iTunes

iTunes

1 сезон

RePack

30

ИГРА 18+

pack

ВАЖНО

!!Акция!!

Alien_RageХит недели

RePack

MK11
pack

Забери бонус

RePack

jed

!!Акция!!

Alien_Rage

RePack

fifa19

RePack

Assassins Creed: Odyssey

RePack

NEED FOR SPEED™ PAYBACK

4 сезон

9 сезон

Бесстыжие 9 сезон

Все сериалы

все сериалы на PB.wtf

RePack

FAR CRY 5
  

Ограбление на Бейкер-Стрит / The Bank Job (Роджер Дональдсон) [2008 г., Детектив, Триллер, BDRip 720p] pb.wtf

Ограбление на Бейкер-Стрит через торрент pb.wtf

Размер: 5.01 GB | Добавлен: 8 лет 10 мес. назад | Торрент скачан:245 раз
Скачать  

03-12-2011 15:59 Ограбление на Бейкер-Стрит Скачать торрент  

Ограбление на Бейкер-Стрит / The Bank Job
Год выхода: 2008
Страна: США, Великобритания
Жанр: Детектив, Триллер
Продолжительность: 01:52:01

Перевод: Профессиональный (Дублированный)
Субтитры: Русские, английские (спасибо subsvin2)

Режиссер: Роджер Дональдсон /Roger Donaldson/

В ролях: Джейсон Стэтхэм /Jason Statham/, Саффрон Берроуз /Saffron Burrows/, Стефен Кэмпбелл Мур /Stephen Campbell Moore/, Дэниэл Мейс /Daniel Mays/, Джеймс Фолкнер /James Faulkner/, Алки Дэвид /Alki David/

Описание: Фильм рассказывает о легендарном ограблении банка на Бейкер-стрит в 1971 году, когда не было произведено ни одного ареста и не было найдено ни малейшего следа похищенных денег. Поскольку налет на банк был инициирован высокопоставленными официальными лицами, до недавнего времени действовал запрет на разглашение информации об ограблении. Но теперь гриф "секретно" снят британским правительством, и перед зрителем открывается красочная, лихо закрученная история, полная тайн, сюрпризов и неожиданных поворотов...

Качество: BDRip 720p
Формат: MKV
Видео кодек: H.264
Аудио кодек: DTS
Видео: H.264, 4897 Kbps, 1280x544 pix, 23.976 fps, High L4.1
Аудио: 1: DTS, 48.0 KHz, 24 bits, 768 кбит/с, 6 channels |Дублированный|
Аудио: 2: DTS, 48.0 KHz, 24 bits, 768 кбит/с, 6 channels |Английский, оригинал|
General
Unique ID : 183553524334588315702044824297117367733 (0x8A171F75CF37D5A39B166C5D6214BDB5)
Complete name : F:The Bank Job [BDRip 720p] (2008).mkv
Format : Matroska
Format version : Version 2
File size : 5.01 GiB
Duration : 1h 52mn
Overall bit rate : 6 405 Kbps
Encoded date : UTC 2011-12-02 16:50:03
Writing application : mkvmerge v4.9.1 ('Ich will') сборка от Jul 11 2011 23:53:15
Writing library : libebml v1.2.1 + libmatroska v1.1.1

Video
ID : 1
Format : AVC
Format/Info : Advanced Video Codec
Format profile : High L4.1
Format settings, CABAC : Yes
Format settings, ReFrames : 5 frames
Codec ID : V_MPEG4/ISO/AVC
Duration : 1h 52mn
Bit rate : 4 897 Kbps
Width : 1 280 pixels
Height : 544 pixels
Display aspect ratio : 2.35:1
Frame rate : 23.976 fps
Color space : YUV
Chroma subsampling : 4:2:0
Bit depth : 8 bits
Scan type : Progressive
Bits/(Pixel*Frame) : 0.293
Stream size : 3.73 GiB (74%)
Writing library : x264 core 116 r2074 2641b9e
Encoding settings : cabac=1 / ref=5 / deblock=1:-2:-2 / analyse=0x3:0x133 / me=hex / subme=9 / psy=1 / psy_rd=1.00:0.15 / mixed_ref=1 / me_range=16 / chroma_me=1 / trellis=1 / 8x8dct=1 / cqm=0 / deadzone=21,11 / fast_pskip=1 / chroma_qp_offset=-3 / threads=4 / sliced_threads=0 / nr=0 / decimate=1 / interlaced=0 / bluray_compat=0 / constrained_intra=0 / bframes=10 / b_pyramid=2 / b_adapt=2 / b_bias=0 / direct=3 / weightb=1 / open_gop=0 / weightp=2 / keyint=250 / keyint_min=23 / scenecut=40 / intra_refresh=0 / rc_lookahead=50 / rc=2pass / mbtree=0 / bitrate=4897 / ratetol=1.0 / qcomp=1.00 / qpmin=0 / qpmax=69 / qpstep=4 / cplxblur=20.0 / qblur=0.5 / vbv_maxrate=50000 / vbv_bufsize=50000 / nal_hrd=none / ip_ratio=1.40 / pb_ratio=1.30 / aq=1:1.00
Language : English
Default : Yes
Forced : No
Color primaries : BT.709-5, BT.1361, IEC 61966-2-4, SMPTE RP177
Transfer characteristics : BT.709-5, BT.1361
Matrix coefficients : BT.709-5, BT.1361, IEC 61966-2-4 709, SMPTE RP177

Audio #1
ID : 2
Format : DTS
Format/Info : Digital Theater Systems
Codec ID : A_DTS
Duration : 1h 52mn
Bit rate mode : Constant
Bit rate : 755 Kbps
Channel(s) : 6 channels
Channel positions : Front: L C R, Side: L R, LFE
Sampling rate : 48.0 KHz
Bit depth : 24 bits
Compression mode : Lossy
Stream size : 605 MiB (12%)
Title : DTS, 768 kbps
Language : Russian
Default : Yes
Forced : No

Audio #2
ID : 3
Format : DTS
Format/Info : Digital Theater Systems
Codec ID : A_DTS
Duration : 1h 52mn
Bit rate mode : Constant
Bit rate : 755 Kbps
Channel(s) : 6 channels
Channel positions : Front: L C R, Side: L R, LFE
Sampling rate : 48.0 KHz
Bit depth : 24 bits
Compression mode : Lossy
Stream size : 605 MiB (12%)
Title : DTS, 768 kbps
Language : English
Default : No
Forced : No

Text #1
ID : 4
Format : UTF-8
Codec ID : S_TEXT/UTF8
Codec ID/Info : UTF-8 Plain Text
Language : Russian
Default : No
Forced : No

Text #2
ID : 5
Format : UTF-8
Codec ID : S_TEXT/UTF8
Codec ID/Info : UTF-8 Plain Text
Title : Forced
Language : Russian
Default : No
Forced : No

Text #3
ID : 6
Format : UTF-8
Codec ID : S_TEXT/UTF8
Codec ID/Info : UTF-8 Plain Text
Language : English
Default : No
Forced : No




Релиз: pb.wtf



Скачать Ограбление на Бейкер-Стрит через торрент http://s019.radikal.ru/i611/1204/6c/054064d4bee6.png Скачать фильм Ограбление на Бейкер-Стрит через торрент бесплантно в хорошем качестве Описание: Фильм рассказывает о легендарном ограблении банка на Бейкер-стрит в 1971 году, когда не было произведено ни одного ареста и не ... 10 10 3
Info! Золотая раздача, скачанное не засчитывается.
Торрент: Зарегистрирован [2011-12-03 15:59] · скачан: 245 раз
Статус: √ проверено
Размер: 5.01 GB
Как cкачать? Как скачать Ограбление на Бейкер-Стрит через торрент | qTorrent

% Раздел Тема Автор DL S | L
Фильмы (Blu-ray, BD-Remux, HDDVD) [ 29.89 GB ] Ограбление на Бейкер-Стрит / The Bank Job [2008 BD Remux авторский авторскийукраинскийпрофессиональный ] Бумер Скачать
1 | 0
Релизы по Парсеру [Игры, Сериалы и Фильмы и другое...] [ 4.07 GB ] Ограбление на Бейкер-Стрит / The Bank Job [2008 BDRip-AVC] Dub + MVO + 2x AVO + Original + Subs sanekbest1 Скачать
1 | 0
Фильмы (HD 720p, 1080p) (48-60 fps) [ 4.87 GB ] Ограбление на Бейкер-Стрит / The Bank Job [2008 BDRip 720p] MVO + Sub slaventi-69 Скачать
1 | 0
Фильмы [HD 720p, 1080p] (Хороший звук DUB, MVO) [ 11.83 GB ] Ограбление на Бейкер-Стрит / The Bank Job [2008 Австралия BDRip 1080p DUB AVO] -Lockdown- Скачать
1 | 0
Фильмы [HD 720p, 1080p] (Хороший звук DUB, MVO) [ 9.13 GB ] Ограбление на Бейкер-Стрит / The Bank Job [2008 BDRip ] markfiter Скачать
1 | 0
Фильмы (Blu-ray, BD-Remux, HDDVD) [ 22.06 GB ] Ограбление на Бейкер-Стрит / The Bank Job [2008 Blu-ray + Оригинал] Бумер Скачать
1 | 1
Фильмы [HD 720p, 1080p] (Хороший звук DUB, MVO) [ 7.95 GB ] Ограбление на Бейкер-Стрит / The Bank Job [2008 BDRip 1080p + Авторский Андрей Гаврилов + Оригинал Бумер Скачать
1 | 0

28-11-2019 20:33  

Отключить всю рекламу на сайте

03-12-2011 16:46 Ограбление на Бейкер-Стрит Скачать торрент  

jb_alex
спасибо,даже не слышал об этом фильмеpb.wtf



    Дорогой пользователь! Огромная просьба, поблагодарите релизера, оцените раздачу и оставьте свои комментарий, если Вы скачали Ограбление на Бейкер-Стрит через торрент бесплатно! Внесите свою лепту в развитие PiratBit!
    Комментировать посты могут только пользователи прошедшие не сложную регистрацию
    Показать сообщения:    

    Ограбление на Бейкер-Стрит через торрент
    Скачать бесплатно Ограбление на Бейкер-Стрит
    Ограбление на Бейкер-Стрит скачать торрент
    Ограбление на Бейкер-Стрит смотреть онлайн
    Cкачать фильм Ограбление на Бейкер-Стрит бесплатно
    Ограбление на Бейкер-Стрит скачать торрент в хорошем качестве
    Ограбление на Бейкер-Стрит смотреть онлайн бесплатно в хорошем качестве


    Вы не можете начинать темы
    Вы не можете отвечать на сообщения
    Вы не можете редактировать свои сообщения
    Вы не можете удалять свои сообщения
    Вы не можете голосовать в опросах
    Вы не можете прикреплять файлы к сообщениям
    Вы можете скачивать файлы