Ссылка на приватное зеркало нашего сайта всего за 1$. Внимание количество ограничено!!!

2 сезон

iTunes

1 сезон

1

iTunes

iTunes

iTunes

1 сезон

RePack

30

ИГРА 18+

pack

ВАЖНО

!!Акция!!

Alien_RageХит недели

RePack

MK11
pack

Забери бонус

RePack

jed

!!Акция!!

Alien_Rage

RePack

fifa19

RePack

Assassins Creed: Odyssey

RePack

NEED FOR SPEED™ PAYBACK

4 сезон

9 сезон

Бесстыжие 9 сезон

Все сериалы

все сериалы на PB.wtf

RePack

FAR CRY 5
  

Гладиатор / Gladiator (Ридли Скотт / Ridley Scott) [2000 г. Боевик, драма, приключения. BDRemux 1080p] [10th Anniversary Remastered Edition] [2-in-1: Extended & Theatrical Cut] pb.wtf

Гладиатор через торрент pb.wtf

Размер: 31.28 GB | Добавлен: 8 лет 10 мес. назад | Торрент скачан:121 раз
Скачать  

07-12-2011 14:46 Гладиатор Скачать торрент  

Гладиатор / Gladiator [10th Anniversary Remastered Edition] [2-in-1: Extended & Theatrical Cut] Год выпуска: 2000
Страна: США
Жанр: боевик, драма, приключения
Продолжительность: 02:50:56 + 02:34:58
Перевод 1: Профессиональный (дубляж) | расширенная версия |
Перевод 2: Профессиональный (многоголосый) | театральная версия |
Формат субтитров: srt
Оригинальная аудиодорожка: Английская

Режиссер: Ридли Скотт
Продюссер: Дэвид Францони, Бранко Лустиг, Дуглас Уик
Сценарий: Дэвид Францони, Джон Логан, Уильям Николсон

Бюджет: $103 000 000

лицам до 17 лет обязательно присутствие взрослого
Мировой рейтинг IMDB 8.40 (369 251)


В ролях: Рассел Кроу, Хоакин Феникс, Конни Нильсен, Оливер Рид, Ричард Харрис, Дерек Джекоби, Джимон Хунсу, Дэвид Скофилд, Джон Шрэпнел, Томас Арана, Олег Куценко, Валерий Сторожик, Анна Каменкова, Александр Белявский, Валентин Смирнитский

Описание: В великой Римской империи не было военачальника, равного генералу Максимусу. Непобедимые легионы, которыми командовал этот благородный воин, боготворили его и могли последовать за ним даже в ад.Но случилось так, что отважный Максимус, готовый сразиться с любым противником в честном бою, оказался бессилен против вероломных придворных интриг. Генерала предали и приговорили к смерти. Чудом избежав гибели, Максимус становится гладиатором.Быстро снискав себе славу в кровавых поединках, он оказывается в знаменитом римском Колизее, на арене которого он встретится в смертельной схватке со своим заклятым врагом...

Похожие раздачи: Гладиатор

Качество: BDRemux
Формат: MKV
Видео кодек: H.26x
Аудио кодек: DTS
Видео: H264 / 17138 kbps / 1080p / 23,976 fps / High Profile 4.1
Аудио 1: Русский дубляж / DTS / 5.1 / 48 kHz / 768 kbps (на расширенную версию)
Аудио 2: Русский многоголосый / DTS / 5.1 / 48 kHz / 768 kbps (на театральную версию)
Аудио 3: Английский DTS-HD / 5.1 / 4408 kbps / 48 kHz / 24-bit (DTS Core: 5.1 / 48 kHz / 1509 kbps / 24-bit)
Аудио 4: Английский / Dolby Digital / 2.0 / 48 kHz / 192 kbps (на расширенную версию: коментарии Ридли Скотта и Рассела Кроу)
Аудио 5: Английский / Dolby Digital / 2.0 / 48 kHz / 192 kbps (на театральную версию: коментарии Ридли Скотта, Пьетро Скалиа и Джона Мэтьесона)
Cубтитры 1: Русские (надписи и пр.)
Cубтитры 2: Русские (полные)
Cубтитры 3: Русские (на расширенную версию: коментарии Ридли Скотта и Рассела Кроу)
Cубтитры 4: Русские (на театральную версию: коментарии Ридли Скотта, Пьетро Скалиа и Джона Мэтьесон)
Cубтитры 5: Английские
Cубтитры 6: Английские SDH
Cубтитры 7: Русские PGS (на расширенную версию: коментарии Ридли Скотта и Рассела Кроу)
Cубтитры 8: Русские PGS (на театральную версию: коментарии Ридли Скотта, Пьетро Скалиа и Джона Мэтьесон)
Cубтитры 9: Английские PGS SDH
Чаптеры: есть
Первая по умолчанию идёт расширенная версия (02:50:56), вторая театральная (02:34:58). Они названы соответственно Extended и Theatrical.
Переключають их можно в плеере (mpc) или в трее в Haali media splitter (он конечно должен быть установлен)
Читаем внимательно на какую версию какая дорога/субтитр!!!
скриншот  скриншот  скриншот  скриншот  скриншот  скриншот  скриншот  скриншот  

Код:

Полное имя                       : Gladiator.2000.Remastered.2in1.Blu-ray.1080p.AVC.Rus.Eng.mkv
Формат                           : Matroska
Размер файла                     : 31,3 Гбайт
Продолжительность                : 3 ч. 9 м.
Общий поток                      : 23,6 Мбит/сек
Название фильма                  : Gladiator.2000.Remastered.2in1.Blu-ray.1080p by HANSMER
Дата кодирования                 : UTC 2011-03-10 15:45:15
Программа кодирования            : mkvmerge v4.5.0 ('Speed of Light') built on Feb  1 2011 02:10:32
Библиотека кодирования           : libebml v1.2.0 + libmatroska v1.1.0
Видео
Идентификатор                    : 1
Формат                           : AVC
Формат/Информация                : Advanced Video Codec
Профиль формата                  : High@L4.1
Параметр CABAC формата           : Да
Параметр ReFrames формата        : 4 кадры
Параметры GOP формата            : M=2, N=26
Идентификатор кодека             : V_MPEG4/ISO/AVC
Продолжительность                : 3 ч. 9 м.
Вид битрейта                     : Переменный
Битрейт                          : 19,3 Мбит/сек
Максимальный битрейт             : 32,0 Мбит/сек
Ширина                           : 1920 пикс.
Высота                           : 1080 пикс.
Соотношение сторон               : 16:9
Частота кадров                   : 23,976 кадр/сек
Цветовое пространство            : YUV
Подвыборка цветности             : 4:2:0
Битовая глубина                  : 8 бит
Тип развёртки                    : Прогрессивная
Бит/(Пиксели*Кадры)              : 0.389
Размер потока                    : 25,6 Гбайт (82%)
Заголовок                        : 17138 kbps
Язык                             : English
Основные цвета                   : BT.709-5, BT.1361, IEC 61966-2-4, SMPTE RP177
Характеристики трансфера         : BT.709-5, BT.1361
Коэффициенты матрицы             : BT.709-5, BT.1361, IEC 61966-2-4 709, SMPTE RP177
Аудио #1
Идентификатор                    : 2
Формат                           : DTS
Формат/Информация                : Digital Theater Systems
Идентификатор кодека             : A_DTS
Продолжительность                : 3 ч. 9 м.
Вид битрейта                     : Постоянный
Битрейт                          : 755 Кбит/сек
Канал(ы)                         : 6 канала(ов)
Расположение каналов             : Front: L C R, Side: L R, LFE
Частота                          : 48,0 КГц
Битовая глубина                  : 24 бит
Метод сжатия                     : С потерями
Размер потока                    : 1,00 Гбайт (3%)
Заголовок                        : Dub (for Extended version only)
Язык                             : Russian
Аудио #2
Идентификатор                    : 3
Формат                           : DTS
Формат/Информация                : Digital Theater Systems
Идентификатор кодека             : A_DTS
Продолжительность                : 3 ч. 9 м.
Вид битрейта                     : Постоянный
Битрейт                          : 755 Кбит/сек
Канал(ы)                         : 6 канала(ов)
Расположение каналов             : Front: L C R, Side: L R, LFE
Частота                          : 48,0 КГц
Битовая глубина                  : 24 бит
Метод сжатия                     : С потерями
Размер потока                    : 1,00 Гбайт (3%)
Заголовок                        : Voice Over (for Theatrical version only)
Язык                             : Russian
Аудио #3
Идентификатор                    : 4
Формат                           : DTS
Формат/Информация                : Digital Theater Systems
Профиль формата                  : MA / Core
Идентификатор кодека             : A_DTS
Продолжительность                : 3 ч. 9 м.
Вид битрейта                     : Переменный
Битрейт                          : 1897 Кбит/сек / 1510 Кбит/сек
Канал(ы)                         : 6 канала(ов)
Расположение каналов             : Front: L C R, Side: L R, LFE
Частота                          : 48,0 КГц
Битовая глубина                  : 24 бит
Метод сжатия                     : Без потерь / Lossy
Заголовок                        : DTS-HD MA 5.1 @ 4399 kbps
Язык                             : English
Аудио #4
Идентификатор                    : 5
Формат                           : AC-3
Формат/Информация                : Audio Coding 3
Профиль формата                  : Dolby Digital
Расширение режима                : CM (complete main)
Идентификатор кодека             : A_AC3
Продолжительность                : 3 ч. 9 м.
Вид битрейта                     : Постоянный
Битрейт                          : 192 Кбит/сек
Канал(ы)                         : 2 канала(ов)
Расположение каналов             : Front: L R
Частота                          : 48,0 КГц
Битовая глубина                  : 16 бит
Метод сжатия                     : С потерями
Размер потока                    : 261 Мбайт (1%)
Заголовок                        : Commentary with Ridley Scott and Russell Crowe (for Extended version only)
Язык                             : English
Аудио #5
Идентификатор                    : 6
Формат                           : AC-3
Формат/Информация                : Audio Coding 3
Профиль формата                  : Dolby Digital
Расширение режима                : CM (complete main)
Идентификатор кодека             : A_AC3
Продолжительность                : 3 ч. 9 м.
Вид битрейта                     : Постоянный
Битрейт                          : 192 Кбит/сек
Канал(ы)                         : 2 канала(ов)
Расположение каналов             : Front: L R
Частота                          : 48,0 КГц
Битовая глубина                  : 16 бит
Метод сжатия                     : С потерями
Размер потока                    : 261 Мбайт (1%)
Заголовок                        : Commentary with Ridley Scott, John Mathieson and Pietro Scalia (for Theatrical version only)
Язык                             : English
Текст #1
Идентификатор                    : 7
Формат                           : UTF-8
Идентификатор кодека             : S_TEXT/UTF8
Идентификатор кодека/Информация  : UTF-8 Plain Text
Заголовок                        : Forced
Язык                             : Russian
Текст #2
Идентификатор                    : 8
Формат                           : UTF-8
Идентификатор кодека             : S_TEXT/UTF8
Идентификатор кодека/Информация  : UTF-8 Plain Text
Заголовок                        : Full
Язык                             : Russian
Текст #3
Идентификатор                    : 9
Формат                           : UTF-8
Идентификатор кодека             : S_TEXT/UTF8
Идентификатор кодека/Информация  : UTF-8 Plain Text
Заголовок                        : Commentary with Ridley Scott and Russell Crowe
Язык                             : Russian
Текст #4
Идентификатор                    : 10
Формат                           : UTF-8
Идентификатор кодека             : S_TEXT/UTF8
Идентификатор кодека/Информация  : UTF-8 Plain Text
Заголовок                        : Commentary with Ridley Scott, John Mathieson and Pietro Scalia
Язык                             : Russian
Текст #5
Идентификатор                    : 11
Формат                           : UTF-8
Идентификатор кодека             : S_TEXT/UTF8
Идентификатор кодека/Информация  : UTF-8 Plain Text
Язык                             : English
Текст #6
Идентификатор                    : 12
Формат                           : UTF-8
Идентификатор кодека             : S_TEXT/UTF8
Идентификатор кодека/Информация  : UTF-8 Plain Text
Заголовок                        : SDH
Язык                             : English
Текст #7
Идентификатор                    : 13
Формат                           : PGS
Идентификатор кодека             : S_HDMV/PGS
Идентификатор кодека/Информация  : The same subtitle format used on BDs/HD-DVDs
Заголовок                        : PGS Commentary with Ridley Scott and Russell Crowe
Язык                             : Russian
Текст #8
Идентификатор                    : 14
Формат                           : PGS
Идентификатор кодека             : S_HDMV/PGS
Идентификатор кодека/Информация  : The same subtitle format used on BDs/HD-DVDs
Заголовок                        : PGS Commentary with Ridley Scott, John Mathieson and Pietro Scalia
Язык                             : Russian
Текст #9
Идентификатор                    : 15
Формат                           : PGS
Идентификатор кодека             : S_HDMV/PGS
Идентификатор кодека/Информация  : The same subtitle format used on BDs/HD-DVDs
Заголовок                        : PGS SDH
Язык                             : English
Меню #1
Меню #2

pb.wtf



Скачать Гладиатор через торрент http://www.kinopoisk.ru/images/film_oscar_icon.jpg Скачать фильм Гладиатор через торрент бесплантно в хорошем качестве Описание: В великой Римской империи не было военачальника, равного генералу Максимусу. Непобедимые легионы, которыми командовал этот ... 10 10 7
Info! Золотая раздача, скачанное не засчитывается.
Торрент: Зарегистрирован [2011-12-07 14:46] · скачан: 121 раз
Статус: √ проверено
Размер: 31.28 GB
Как cкачать? Как скачать Гладиатор через торрент | qTorrent

% Раздел Тема Автор DL S | L
Фильмы (HD 720p, 1080p) (48-60 fps) [ 6.91 GB ] Гладиатор / Gladiator [2000 история Hybrid 720p / 60 FPS ] от R.G. HD-Films slaventi-69 Скачать
2 | 0
Ultra HD (UHD: 2K, 4K, 8K) — видео сверхвысокой чёткости [ 60.64 GB ] Гладиатор / Gladiator [2000 UHD BDRemux 2160p] [Dolby Vision TV] DUB [Расширенная версия] bober100 Скачать
1 | 0
Порно фильмы с русским переводом [ 5.42 GB ] Private Gold 54 55 56: Гладиатор 1 2 3 / Private Gladiator 1 2 3 [2002 Feature DVDRip 544p двухголосый Одноголосый SP Company] sheker187 Скачать
2 | 0
Ultra HD (UHD: 2K, 4K, 8K) — видео сверхвысокой чёткости [ 58.89 GB ] Гладиатор / Gladiator [2000 UHD BDRemux 2160p] DUB + 3xMVO + 2xAVO [Театральная версия] sheker187 Скачать
1 | 0
Ultra HD (UHD: 2K, 4K, 8K) — видео сверхвысокой чёткости [ 41.52 GB ] Гладиатор / Gladiator [2000 UHD BDRip 2160p] DUB + MVO + 2xAVO [Расширенная версия] sheker187 Скачать
1 | 0
Ultra HD (UHD: 2K, 4K, 8K) — видео сверхвысокой чёткости [ 68.21 GB ] Гладиатор / Gladiator [2000 UHD BDRemux 2160p] DUB + MVO + 2xAVO [Расширенная версия] sheker187 Скачать
4 | 0
Фильмы (WEB-DL 720p, 1080p) [ 3.3 GB ] Гладиатор / Gladiator [1992 экранизация WEB-DL 720p] 2x[MVO] killermax2013 Скачать
1 | 0

28-11-2019 20:33  

Отключить всю рекламу на сайте

    Дорогой пользователь! Огромная просьба, поблагодарите релизера, оцените раздачу и оставьте свои комментарий, если Вы скачали Гладиатор через торрент бесплатно! Внесите свою лепту в развитие PiratBit!
    Комментировать посты могут только пользователи прошедшие не сложную регистрацию
    Показать сообщения:    

    Гладиатор через торрент
    Скачать бесплатно Гладиатор
    Гладиатор скачать торрент
    Гладиатор смотреть онлайн
    Cкачать фильм Гладиатор бесплатно
    Гладиатор скачать торрент в хорошем качестве
    Гладиатор смотреть онлайн бесплатно в хорошем качестве


    Вы не можете начинать темы
    Вы не можете отвечать на сообщения
    Вы не можете редактировать свои сообщения
    Вы не можете удалять свои сообщения
    Вы не можете голосовать в опросах
    Вы не можете прикреплять файлы к сообщениям
    Вы можете скачивать файлы