1 сезон

3 сезон

iTunes

1

Line

MVO

iTunes

13

1 сезон

RePack

30

Deluxe

pack

Лицензия

ВАЖНО

ИГРА 18+

pack

RePack

MK11

RePack

jed

RePack

fifa19

RePack

RDR2

RePack

NEED FOR SPEED™ PAYBACK

4 сезон

9 сезон

Бесстыжие 9 сезон

Все сериалы

все сериалы на PB.wtf

RePack

FAR CRY 5

Anonymous, доброй ночи, мы катастрофически не успеваем собрать деньги на оплату серверов, помогите нам пожалуйста 5,10,15р., для нас важна любая помощь . В качестве благодарности мы отключим Вам всю рекламу на сайте (укажите свой ник в строку Ваше имя)!

×
  
Magnet ссылка

Дом грёз / Dream House (Джим Шеридан / Jim Sheridan) [2011, триллер, драма, детектив, DVD9] R5 «CP-Digital» pb.wtf

Дом грёз через торрент pb.wtf

Размер: 5.58 GB | Добавлен: 9 лет 7 мес. назад | Торрент скачан:85 раз
Скачать  

13-12-2011 19:27 Дом грёз Скачать торрент  


Дом грёз / Dream House
«Once upon a time, there were two little girls who lived in a house.»
Страна: США
Студия: Cliffjack Motion Pictures, Morgan Creek Productions
Жанр: триллер, драма, детектив
Год выпуска: 2011
Мировая премьера: 29 сентября 2011
Российская премьера: 29 сентября 2011, «Каскад»
Дата выхода DVD: 15 декабря 2011, «CP-Digital»
Дата выхода Blu-Ray: 15 декабря 2011, «CP-Digital»
Продолжительность: 01:27:06
Перевод: Профессиональный (дублированный) [Лицензия]
Cубтитры: нет
Режиссер: Джим Шеридан / Jim Sheridan
В ролях: Дэниэл Крэйг, Рейчел Вайс, Наоми Уоттс, Элиас Котеас, Мартон Чокаш, Тейлор Джир, Клер Джир, Рэйчел Дж. Фокс, Джейн Александр, Брайан Мюррей...
Описание: Состоятельный издатель со своей женой и двумя дочерьми переезжают в тихий провинциальный городок, который на поверку оказывается не таким уж и тихим. При участии любопытной соседки семейство узнает, что их дом стал местом жестокого убийства, а преступник до сих пор разгуливает на свободе.
Бонусы: Трейлер, Создатели и Исполнители, Смотрите на DVD

Качество: DVD9 R5
Формат: DVD-Video
Видео кодек: MPEG2
Аудио кодек: AC3 + DTS
Видео: PAL 16:9 (720x576(0.577)) MPEG Video, 25,000 кадр/сек, 5986 Кбит/сек
Аудио #1: Russian (Dolby AC3, 6 ch) 448 Кбит/сек, 48,0 КГц
Аудио #2: Russian (DTS, 5 ch) 1536 Кбит/сек, 48,0 КГц



Title: Рабочий
Size: 5.58 Gb ( 5 849 560 KBytes ) - DVD-9
Enabled regions: 1, 2, 3, 4, 5, 6, 7, 8

VTS_01 :
Play Length: 00:00:05
Video: PAL 4:3 (720x576) VBR
Subtitles:
English
English

VTS_02 :
Play Length: 00:00:05
Video: PAL 16:9 (720x576) VBR, Auto Letterboxed
Subtitles:
Not specified

VTS_03 :
Play Length: 00:02:25
Video: PAL 16:9 (720x576) VBR, Auto Letterboxed
Audio:
Not specified (Dolby AC3, 2 ch)
Not specified (Dolby AC3, 2 ch)
Subtitles:
Not specified

VTS_04 :
Play Length: 00:01:52
Video: PAL 16:9 (720x576) VBR, Auto Letterboxed
Audio:
Not specified (Dolby AC3, 6 ch)
Not specified (Dolby AC3, 6 ch)
Subtitles:
Not specified

VTS_05 :
Play Length: 01:27:06
Video: PAL 16:9 (720x576) VBR, Auto Letterboxed
Audio:
Russian (Dolby AC3, 6 ch)
Russian (DTS, 5 ch)

VTS_06 :
Play Length: 00:02:00
Video: PAL 16:9 (720x576) VBR, Auto Letterboxed
Audio:
Not specified (Dolby AC3, 2 ch)
Subtitles:
Not specified

VTS_07 :
Play Length: 00:02:22
Video: PAL 16:9 (720x576) VBR, Auto Letterboxed
Audio:
Not specified (Dolby AC3, 2 ch)
Subtitles:
Not specified

VTS_08 :
Play Length: 00:01:33
Video: PAL 16:9 (720x576) VBR, Auto Letterboxed
Audio:
Not specified (Dolby AC3, 2 ch)
Subtitles:
Not specified

VTS_09 :
Play Length: 00:02:00
Video: PAL 16:9 (720x576) VBR, Auto Letterboxed
Audio:
Not specified (Dolby AC3, 2 ch)
Subtitles:
Not specified

VTS_10 :
Play Length: 00:01:42
Video: PAL 16:9 (720x576) VBR, Auto Letterboxed
Audio:
Not specified (Dolby AC3, 2 ch)
Subtitles:
Not specified

VTS_11 :
Play Length: 00:01:50
Video: PAL 16:9 (720x576) VBR, Auto Letterboxed
Audio:
Not specified (Dolby AC3, 2 ch)
Subtitles:
Not specified

VTS_12 :
Play Length: 00:01:37
Video: PAL 16:9 (720x576) VBR, Auto Letterboxed
Audio:
Not specified (Dolby AC3, 2 ch)
Subtitles:
Not specified
Общее
Полное имя : G:\Новинки 2011\Dom.grez.2011.D.DVD9\VIDEO_TS\VTS_05_3.VOB
Формат : MPEG-PS
Размер файла : 1024 Мбайт
Продолжительность : 17 м.
Общий поток : 8105 Кбит/сек

Видео
Идентификатор : 224 (0xE0)
Формат : MPEG Video
Версия формата : Version 2
Профиль формата : Main@Main
Параметр BVOP формата : Да
Параметр матрицы формата : По умолчанию
Параметр GOP формата : M=3, N=12
Продолжительность : 17 м.
Вид битрейта : Переменный
Битрейт : 5986 Кбит/сек
Максимальный битрейт : 9500 Кбит/сек
Ширина : 720 пикселей
Высота : 576 пикселей
Соотношение сторон : 16:9
Частота кадров : 25,000 кадров/сек
Стандарт вещания : PAL
Цветовое пространство : YUV
Субдискретизация насыщенности : 4:2:0
Битовая глубина : 8 бит
Тип развёртки : Прогрессивная
Метод сжатия : С потерями
Бит/(Пиксели*Кадры) : 0.577
Размер потока : 756 Мбайт (74%)

Аудио #1
Идентификатор : 189 (0xBD)-128 (0x80)
Формат : AC-3
Формат/Информация : Audio Coding 3
Расширение режима : CM (complete main)
Режим смешивания : DVD-Video
Продолжительность : 17 м.
Вид битрейта : Постоянный
Битрейт : 448 Кбит/сек
Каналы : 6 каналов
Расположение каналов : Front: L C R, Side: L R, LFE
Частота : 48,0 КГц
Битовая глубина : 16 бит
Метод сжатия : С потерями
Задержка видео : -480 мс.
Размер потока : 56,6 Мбайт (6%)

Аудио #2
Идентификатор : 189 (0xBD)-137 (0x89)
Формат : DTS
Формат/Информация : Digital Theater Systems
Режим смешивания : DVD-Video
Продолжительность : 17 м.
Вид битрейта : Постоянный
Битрейт : 1510 Кбит/сек
Каналы : 6 каналов
Расположение каналов : Front: L C R, Side: L R, LFE
Частота : 48,0 КГц
Битовая глубина : 16 бит
Метод сжатия : С потерями
Задержка видео : -533 мс.
Размер потока : 191 Мбайт (19%)










pb.wtf



Скачать Дом грёз через торрент http://i2.imageban.ru/out/2011/12/13/e20505477cd59648f0a510dae649d6b5.jpg Скачать фильм Дом грёз через торрент бесплантно в хорошем качестве Описание: Состоятельный издатель со своей женой и двумя дочерьми переезжают в тихий провинциальный городок, который на поверку оказывается ... 10 10 1
Info! Золотая раздача, скачанное не засчитывается.
Торрент: Зарегистрирован [2011-12-13 19:27] · скачан: 85 раз
Статус: √ проверено
Размер: 5.58 GB
Как cкачать? Как скачать Дом грёз через торрент | UTorrent

28-11-2019 20:33  

Отключить всю рекламу на сайте

13-12-2011 19:29 Дом грёз Скачать торрент  

Спасибо!!!
5+++pb.wtf



13-12-2011 19:35 Дом грёз Скачать торрент  

када рип?pb.wtf



13-12-2011 20:54 Дом грёз Скачать торрент  

spaniel писал(а):

када рип?

Сегодня будет. вернее уже есть http://pb.wtf/viewtopic.php?t=66072pb.wtf



15-12-2011 14:25 Дом грёз Скачать торрент  

спасибоpb.wtf



    Дорогой пользователь! Огромная просьба, поблагодарите релизера, оцените раздачу и оставьте свои комментарий, если Вы скачали Дом грёз через торрент бесплатно! Внесите свою лепту в развитие PiratBit!
    Комментировать посты могут только пользователи прошедшие не сложную регистрацию
    Показать сообщения:    

    Дом грёз через торрент
    Скачать бесплатно Дом грёз
    Дом грёз скачать торрент
    Дом грёз смотреть онлайн
    Cкачать фильм Дом грёз бесплатно
    Дом грёз скачать торрент в хорошем качестве
    Дом грёз смотреть онлайн бесплатно в хорошем качестве


    Вы не можете начинать темы
    Вы не можете отвечать на сообщения
    Вы не можете редактировать свои сообщения
    Вы не можете удалять свои сообщения
    Вы не можете голосовать в опросах
    Вы не можете прикреплять файлы к сообщениям
    Вы можете скачивать файлы