1 сезон

3 сезон

iTunes

1

Line

MVO

iTunes

13

1 сезон

RePack

30

Deluxe

pack

Лицензия

ВАЖНО

ИГРА 18+

pack

RePack

MK11

RePack

jed

RePack

fifa19

RePack

RDR2

RePack

NEED FOR SPEED™ PAYBACK

4 сезон

9 сезон

Бесстыжие 9 сезон

Все сериалы

все сериалы на PB.wtf

RePack

FAR CRY 5

Anonymous, добрый вечер, мы катастрофически не успеваем собрать деньги на оплату серверов, помогите нам пожалуйста 5,10,15р., для нас важна любая помощь . В качестве благодарности мы отключим Вам всю рекламу на сайте (укажите свой ник в строку Ваше имя)!

×
  
Magnet ссылка

Поля / Texas Killing Fields (Эми Канаан Манн / Ami Canaan Mann) [2011, триллер, драма, криминал, история, DVD5] pb.wtf

Поля через торрент pb.wtf

Размер: 4.19 GB | Добавлен: 9 лет 7 мес. назад | Торрент скачан:71 раз
Скачать  

13-12-2011 20:54 Поля Скачать торрент  


Поля / Texas Killing Fields
«Место, откуда нет пути назад»
Страна: США
Студия: Anchor Bay Films, Block / Hanson, Blue Light, Forward Pass, Gideon Productions, Infinity Media, QED International, Watley Entertainment
Жанр: триллер, драма, криминал, история
Год выпуска: 2011
Мировая премьера: 9 сентября 2011
Российская премьера: 24 ноября 2011, «Top Film Distribution»
Дата выхода DVD: 15 декабря 2011, «New Dream media», «Новый Диск»
Продолжительность: 01:40:32
Перевод: Профессиональный (дублированный) [Лицензия]
Cубтитры: украинские
Оригинальная аудиодорожка: английский
Режиссер: Эми Канаан Манн / Ami Canaan Mann
В ролях: Сэм Уортингтон, Джеффри Дин Морган, Хлоя Грейс Морец, Джессика Честейн, Стивен Грэм, Кори Беркмейер, Трентон Перез, Морин Бреннан, Тони Бентли, Бекки Флю...
Описание: В центре сюжета — два детектива: один местный техасец Майк Саудер, второй — переехавший из Нью-Йорка Брайан Хай. Герои в паре расследуют загадочные убийства жертв, найденных на Полях Смерти. Сложность в том, что места преступления как такового нет: всех жертв преступники привозят из других мест и просто сваливают в Техасе — отсюда и название Поля Смерти для этой области.
Внезапно из следователей детективы сами превращаются в жертв: преступники начинают играть с ними в кошки-мышки, подсовывая улики и донимая звонками с телефонов убитых. Когда они похищают местную девочку Энн, Саудер и Хай идут на все, чтобы найти ее.

Бонусы: нет

Качество: DVD5 R5
Формат: DVD-Video
Видео кодек: MPEG2
Аудио кодек: AC3
Видео: PAL 16:9 (720x576(0.425)) MPEG Video, 25,000 кадр/сек, 4402 Кбит/сек
Аудио #1: Russian (Dolby AC3, 6 ch) 384 Кбит/сек, 48,0 КГц
Аудио #2: English (Dolby AC3, 6 ch) 384 Кбит/сек, 48,0 КГц



Title: Рабочий
Size: 4.19 Gb ( 4 388 590 KBytes ) - DVD-5
Enabled regions: 1, 2, 3, 4, 5, 6, 7, 8

VTS_01 :
Play Length: 00:00:08
Video: PAL 4:3 (720x576) VBR

VTS_02 :
Play Length: 00:00:13
Video: PAL 16:9 (720x576) VBR, Auto Letterboxed

VTS_03 :
Play Length: 01:40:32
Video: PAL 16:9 (720x576) VBR, Auto Letterboxed
Audio:
Russian (Dolby AC3, 6 ch)
English (Dolby AC3, 6 ch)
Subtitles:
Ukrainian

VTS_04 :
Play Length: 00:02:20+00:02:11+00:01:57+00:02:08+00:01:48
Video: PAL 16:9 (720x576) VBR, Auto Letterboxed
Audio:
English (Dolby AC3, 2 ch)

Menu Video:
NTSC 4:3 (720x480) VBR
Auto Pan&Scan, Auto Letterboxed
Menu Russian Language Unit :
Root Menu
Chapter (PTT) Menu
Audio Menu
Angle menu
Общее
Полное имя : G:\Новинки 2011\Polya.2011.DVD5\VIDEO_TS\VTS_03_1.VOB
Формат : MPEG-PS
Размер файла : 1024 Мбайт
Продолжительность : 27 м.
Общий поток : 5275 Кбит/сек

Видео
Идентификатор : 224 (0xE0)
Формат : MPEG Video
Версия формата : Version 2
Профиль формата : Main@Main
Параметр BVOP формата : Да
Параметр матрицы формата : Выборочная
Продолжительность : 27 м.
Вид битрейта : Переменный
Битрейт : 4402 Кбит/сек
Максимальный битрейт : 8000 Кбит/сек
Ширина : 720 пикселей
Высота : 576 пикселей
Соотношение сторон : 16:9
Частота кадров : 25,000 кадров/сек
Стандарт вещания : PAL
Цветовое пространство : YUV
Субдискретизация насыщенности : 4:2:0
Битовая глубина : 8 бит
Тип развёртки : Чересстрочная
Порядок развёртки : Верхнее поле первое
Метод сжатия : С потерями
Бит/(Пиксели*Кадры) : 0.425
Размер потока : 855 Мбайт (83%)

Аудио #1
Идентификатор : 189 (0xBD)-128 (0x80)
Формат : AC-3
Формат/Информация : Audio Coding 3
Расширение режима : CM (complete main)
Режим смешивания : DVD-Video
Продолжительность : 27 м.
Вид битрейта : Постоянный
Битрейт : 384 Кбит/сек
Каналы : 6 каналов
Расположение каналов : Front: L C R, Side: L R, LFE
Частота : 48,0 КГц
Битовая глубина : 16 бит
Метод сжатия : С потерями
Размер потока : 74,5 Мбайт (7%)

Аудио #2
Идентификатор : 189 (0xBD)-129 (0x81)
Формат : AC-3
Формат/Информация : Audio Coding 3
Расширение режима : CM (complete main)
Режим смешивания : DVD-Video
Продолжительность : 27 м.
Вид битрейта : Постоянный
Битрейт : 384 Кбит/сек
Каналы : 6 каналов
Расположение каналов : Front: L C R, Side: L R, LFE
Частота : 48,0 КГц
Битовая глубина : 16 бит
Метод сжатия : С потерями
Размер потока : 74,5 Мбайт (7%)

Текст
Идентификатор : 189 (0xBD)-32 (0x20)
Формат : RLE
Формат/Информация : Run-length encoding
Режим смешивания : DVD-Video










pb.wtf



Скачать Поля через торрент http://i2.imageban.ru/out/2011/12/13/7cb9404bd5c01635b81c559350083d7c.jpg Скачать фильм Поля через торрент бесплантно в хорошем качестве Описание: В центре сюжета — два детектива: один местный техасец Майк Саудер, второй — переехавший из Нью-Йорка Брайан Хай. Герои в паре ... 4.3 10 4
Info! Золотая раздача, скачанное не засчитывается.
Торрент: Зарегистрирован [2011-12-13 20:54] · скачан: 71 раз
Статус: √ проверено
Размер: 4.19 GB
Как cкачать? Как скачать Поля через торрент | UTorrent

% Раздел Тема Автор DL S | L
Фильмы 2011 [ 1.13 GB ] Поля / Texas Killing Fields [2011 история HDRip-AVC] DUB Eng serg7628 Скачать
1 | 0
Фильмы [HD 720p, 1080p] (Хороший звук DUB, MVO) [ 8.39 GB ] Поля / Texas Killing Fields [2011 BDRip 1080p] Shmel Скачать
1 | 0
Фильмы [HD 720p, 1080p] (Хороший звук DUB, MVO) [ 4.66 GB ] Поля / Texas Killing Fields [2011 история BDRip ] orton Скачать
1 | 0
Фильмы 2011 [ 1.37 GB ] Поля / Texas Killing Fields [2011 история DVDRip][ лицензия ] WISE Скачать
1 | 0

28-11-2019 20:33  

Отключить всю рекламу на сайте

14-12-2011 02:20 Поля Скачать торрент  

дайте скорость)pb.wtf



    Дорогой пользователь! Огромная просьба, поблагодарите релизера, оцените раздачу и оставьте свои комментарий, если Вы скачали Поля через торрент бесплатно! Внесите свою лепту в развитие PiratBit!
    Комментировать посты могут только пользователи прошедшие не сложную регистрацию
    Показать сообщения:    

    Поля через торрент
    Скачать бесплатно Поля
    Поля скачать торрент
    Поля смотреть онлайн
    Cкачать фильм Поля бесплатно
    Поля скачать торрент в хорошем качестве
    Поля смотреть онлайн бесплатно в хорошем качестве


    Вы не можете начинать темы
    Вы не можете отвечать на сообщения
    Вы не можете редактировать свои сообщения
    Вы не можете удалять свои сообщения
    Вы не можете голосовать в опросах
    Вы не можете прикреплять файлы к сообщениям
    Вы можете скачивать файлы