Ссылка на приватное зеркало нашего сайта всего за 1$. Внимание количество ограничено!!!

2 сезон

iTunes

1 сезон

1

2 сезон

2 сезон

iTunes

1 сезон

RePack

30

Новинка

ВАЖНО

ИГРА 18+

pack

RePack

MK11
pack

Забери бонус

RePack

jed

!!Акция!!

Alien_Rage

RePack

fifa19

RePack

Assassins Creed: Odyssey

RePack

NEED FOR SPEED™ PAYBACK

4 сезон

9 сезон

Бесстыжие 9 сезон

Все сериалы

все сериалы на PB.wtf

RePack

FAR CRY 5
  

Мохнатики 1 сезон (1-8 серии из 8) / Fur TV (Крис Уаит, Генри Труттер) [2004 г., Комедия, TVRip] pb.wtf

Мохнатики 1 сезон через торрент pb.wtf

Размер: 2.42 GB | Добавлен: 8 лет 11 мес. назад | Торрент скачан:41 раз
Скачать  

14-12-2011 11:21 Мохнатики 1 сезон Скачать торрент  

Мохнатики / Fur TV

Год выпуска(на экранах): 2004
Страна: Великобритания
Жанр: Комедия
Продолжительность: 8 серий по 21 минуте
Перевод: Любительский (Гоблинa)

Авторы идеи: Крис Уаит, Генри Труттер

В ролях: Мервин, Жирный Эд, Лапино

Описание: Мохнатики - это первый телевизионный продукт, в котором играют живые люди и куклы. Причем главные роли здесь отведены именно плюшевым героям: Жирный Эд - брутальный любитель пива, сдвинутый на хэви-металле, Лапено Энрике - бразильский сердцеед, мачо, сводящий с ума всех без исключения женщин и некоторых мужчин, а также Мёрвин Джей Минки – унылый, но добродушный девственник, страдающий от затянувшегося воздержания. Их игрушечное происхождение вовсе не мешает им наслаждаться жизнью.
Их история уже стала культовой для целого поколения западных зрителей. В декабре 2002 года получасовой фильм-проект «Мохнатики» Криса Уэйта и Генри Троттера получил премию Green Lights от BBC. Эта награда открыла победителям дорогу в эфир BBC. Кукольные герои и их похождения в один миг завоевали любовь и популярность у английского зрителя. Канал MTV приобрел право показа этого уникального проекта на территории всего мира. Эта сногсшибательная, грубоватая, иногда впечатляюще откровенная, но невероятно жизнеутверждающая комедия никого не оставит равнодушным!

Доп. информация:
"Внимание! В сериале присутствуют шутки для взрослых, нецензурная брань, шокирующие сцены, секс между людьми и куклами, а также жесточайшие факты насилия с использованием бензоинструментов с нарушением правил техники безопасности".
Видео с канала 2x2.

Качество: TVRip
Формат: AVI
Видео кодек: XviD
Аудио кодек: MP3
Видео: 720x416 (1.73:1), 25 fps, XviD build 50 ~1778 kbps avg, 0.24 bit/pixel
Аудио: 48 kHz, MPEG Layer 3, 2 ch, ~192.00 kbps avg
Общее
Полное имя \FurTV\s1e01.avi
Формат : AVI
Формат/Информация : Audio Video Interleave
Размер файла : 305 Мбайт
Продолжительность : 21 м.
Общий поток : 1981 Кбит/сек
Программа кодирования : VirtualDubMod 1.5.10.2 (build 2540/release)
Библиотека кодирования : VirtualDubMod build 2540/release

Видео
Идентификатор : 0
Формат : MPEG-4 Visual
Профиль формата : Advanced SimpleL5
Параметр BVOP формата : 1
Параметр QPel формата : Нет
Параметр GMC формата : Без точки перехода
Параметр матрицы формата : Default (H.263)
Идентификатор кодека : XVID
Идентификатор кодека/Подсказка : XviD
Продолжительность : 21 м.
Битрейт : 1779 Кбит/сек
Ширина : 720 пикселей
Высота : 416 пикселей
Соотношение сторон : 16:9
Частота кадров : 25,000 кадров/сек
Цветовое пространство : YUV
Субдискретизация насыщенности : 4:2:0
Битовая глубина : 8 бит
Тип развёртки : Прогрессивная
Метод сжатия : С потерями
Бит/(Пиксели*Кадры) : 0.238
Размер потока : 274 Мбайт (90%)
Библиотека кодирования : XviD 1.2.1 (UTC 2008-12-04)

Аудио
Идентификатор : 1
Формат : MPEG Audio
Версия формата : Version 1
Профиль формата : Layer 3
Идентификатор кодека : 55
Идентификатор кодека/Подсказка : MP3
Продолжительность : 21 м.
Вид битрейта : Постоянный
Битрейт : 192 Кбит/сек
Каналы : 2 канала
Частота : 48,0 КГц
Метод сжатия : С потерями
Размер потока : 29,6 Мбайт (10%)
Выравнивание : Соединение по промежуткам
Продолжительность промежутка : 40 мс. (1,00 видеокадр)
Время предзагрузки промежутка : 504 мс.
Библиотека кодирования : LAME3.98r
Настройки программы : -m s -V 4 -q 2 -lowpass 18.6 -b 192
1. "Rent Boys/Hot Pussy" (включает в себя 4 мини-эпизода: 1. Мальчики в Аренду; 2. MTV: по домам; 3. Оху*нный путеводитель жирного Эда по металлу; 4. Горячая киска)
2. "My Big Fat Gay Wedding/There's Something About Mervin" (включает в себя 2 мини-эпизода: 1. Моя большая жирная гейская свадьба; 2. Кое-что о Мёрвине)
3. "Mervin's Millions/Fur & Loathing" (включает в себя 2 мини-эпизода: 1. Миллионы Мервина; 2. Мех и ненависть)
4. "Bad Apples/Enter the DJ"
5. "Hungry for Love/Brown Fury"
6. "Ladies Love Lapeño/Arse of Darkness"
7. "Fist of Fur/Get Mervin"
8. "Merverella"
pb.wtf



Скачать Мохнатики 1 сезон через торрент http://pic.kartinco.top/images/2011/ouq7k96f54.png Скачать фильм Мохнатики 1 сезон через торрент бесплантно в хорошем качестве Описание: Мохнатики - это первый телевизионный продукт, в котором играют живые люди и куклы. Причем главные роли здесь отведены именно ... 7 10 1
Info! Золотая раздача, скачанное не засчитывается.
Торрент: Зарегистрирован [2011-12-14 11:21] · скачан: 41 раз
Статус: √ проверено
Размер: 2.42 GB
Как cкачать? Как скачать Мохнатики 1 сезон через торрент | qTorrent

28-11-2019 20:33  

Отключить всю рекламу на сайте

14-12-2011 12:24 Мохнатики 1 сезон Скачать торрент  

Задорный сериал!!!!! sarcasticpb.wtf



14-12-2011 12:36 Мохнатики 1 сезон Скачать торрент  

Прям Улица Сезам XDpb.wtf



14-12-2011 15:47 Мохнатики 1 сезон Скачать торрент  

а остальные сезоны будут?pb.wtf



14-12-2011 16:06 Мохнатики 1 сезон Скачать торрент  

есть еще, 1.5 сезон, но я его нигде не нашел только информацию что он есть... а так вроде не планируется больше(pb.wtf



    Дорогой пользователь! Огромная просьба, поблагодарите релизера, оцените раздачу и оставьте свои комментарий, если Вы скачали Мохнатики 1 сезон через торрент бесплатно! Внесите свою лепту в развитие PiratBit!
    Комментировать посты могут только пользователи прошедшие не сложную регистрацию
    Показать сообщения:    

    Мохнатики 1 сезон через торрент
    Скачать бесплатно Мохнатики 1 сезон
    Мохнатики 1 сезон скачать торрент
    Мохнатики 1 сезон смотреть онлайн
    Cкачать фильм Мохнатики 1 сезон бесплатно
    Мохнатики 1 сезон скачать торрент в хорошем качестве
    Мохнатики 1 сезон смотреть онлайн бесплатно в хорошем качестве


    Вы не можете начинать темы
    Вы не можете отвечать на сообщения
    Вы не можете редактировать свои сообщения
    Вы не можете удалять свои сообщения
    Вы не можете голосовать в опросах
    Вы не можете прикреплять файлы к сообщениям
    Вы можете скачивать файлы