Ссылка на приватное зеркало нашего сайта всего за 1$. Внимание количество ограничено!!!

2 сезон

iTunes

1 сезон

1

2 сезон

2 сезон

iTunes

1 сезон

RePack

30

Новинка

ВАЖНО

ИГРА 18+

pack

RePack

MK11
pack

Забери бонус

RePack

jed

!!Акция!!

Alien_Rage

RePack

fifa19

RePack

Assassins Creed: Odyssey

RePack

NEED FOR SPEED™ PAYBACK

4 сезон

9 сезон

Бесстыжие 9 сезон

Все сериалы

все сериалы на PB.wtf

RePack

FAR CRY 5
  

13-й (тринадцатый) район (Ультиматум): дилогия / (13th) District B13(-U) / Banlieue 13 (Ultimatum) Collection (Пьер Морель / Pierre Morel, Патрик Алессандрин / Patrick Alessandrin) [2004 / 2009, акробатический экшн, BDRemux 1080p] pb.wtf

13-й через торрент pb.wtf

Размер: 56.69 GB | Добавлен: 8 лет 11 мес. назад | Торрент скачан:26 раз
Скачать  

14-12-2011 13:08 13-й Скачать торрент  

13-й район / Banlieue 13

Год выпуска: 2004
Страна: Франция
Жанр: акробатический экшн
Продолжительность: 01:24:31
Перевод: дубляж, многоголосный закадровый, авторский одноголосный, украинский многоголосный закадровый, английский дубляж
Субтитры: русские, английские
Оглавление: 16 англоязычных глав

Режиссер: Пьер Морель /Pierre Morel/ («Заложница», «Из Парижа с любовью»)

В ролях: Сирил Раффаэлли /Cyril Raffaelli/ (чемпион Франции по китайскому боксу), Дэвид Белль→ /David Belle/ (основатель паркура), Тони Д`Амарио /Tony D'Amario/, Биби Насери /Bibi Naceri/, Дани Вериссимо /Dany Verissimo/, Франсуа Шатто /François Chattot/, Николас Войрион /Nicolas Woirion/, Патрик Оливье /Patrick Olivier/, Самир Гесми /Samir Guesmi/, Тарик Бусехин /Tarik Boucekhine/

Описание:2010й год, Париж. Из-за разгула преступности некоторые особо опасные районы французской столицы превращены в закрытые зоны и отгорожены от благополучных кварталов бетонной стеной. За ней бурлит совсем другая жизнь: здесь процветает торговля наркотиками и оружием, здесь даже дети не выходят из дома без оружия, здесь давно не работают школы и поликлиники, здесь полиция не стоит на страже закона, а лишь защищает себя или же сама поддерживает беззаконие.
Главарю одной из банд удается завладеть нейтронной бомбой. Чтобы обезвредить ее, в 13-й район отправляется офицер спецназа Дамьен. Проникать в опасные зоны — его профессия, однако на этот раз ему все-таки нужен проводник. Союзником Дамьена становится Лейто, отчаянный парень, сестра которого похищена тем же самым главарем…

Качество: BDRemux (District 13 Double Feature 2004-2009 1080p Bluray VC1 DTSHD MA 5.1-BluWave)
Контейнер: Matroska
Видео кодек: VC-1
Аудио кодек: DTS
Видеопоток: 1920x1080p (2.35:1), 24 fps, VC-1 ~22976 kbps
Аудиопоток №1 (RUS): DD 5.1, 48 kHz, 448 kbps | профессиональный (полное дублирование)
Аудиопоток №2 (RUS): DD 5.1, 48 kHz, 448 kbps | профессиональный многоголосный закадровый (R5, студия «Инис»)
Аудиопоток №3 (RUS): DTS 5.1, 48 kHz, 24 bit, 1536 kbps | авторский одноголосный (Немахов)
Аудиопоток №4 (RUS): DTS 5.1, 48 kHz, 24 bit, 1536 kbps | авторский одноголосный (Живов)
Аудиопоток №5 (UKR): DD 2.0, 48 kHz, 192 kbps | профессиональный многоголосный закадровый (Новый канал)
Аудиопоток №6 (ENG): DTS 5.1, 48 kHz, 24 bit, 1536 kbps | профессиональный (полное дублирование)
Аудиопоток №7 (FRA): DTS 5.1, 48 kHz, 24 bit, 1536 kbps
Субтитры №1 (RUS): SRT/UTF8 | R5
Субтитры №2 (ENG): SRT/UTF8
Размер: 17.77 GiB (19 082 974 886 bytes) ~ BD25
скриншот  скриншот  скриншот  скриншот  скриншот  скриншот  

Код:

General
UniqueID : 232836993227479510249999170131653747449 (0xAF2AC613F11FA851928F1C4C696AE2F9)
Complete name : Banlieue.13.2004.1080p.BDRemux.VC-1.DTS-MaLLIeHbKa.mkv
Format : Matroska
File size : 17.8 GiB
Duration : 1h 24mn
Overall bit rate : 30.1 Mbps
Movie name : Banlieue 13 (2004) BDRemux by MaLLIeHbKa
Encoded date : UTC 2010-12-10 06:58:19
Writing application : mkvmerge v4.4.0 ('Die Wiederkehr') built on Oct 31 2010 21:52:48
Writing library : libebml v1.0.0 + libmatroska v1.0.0
Cover : Yes
Video
ID : 1
Format : VC-1
Format profile : AP@L3
Codec ID : WVC1
Codec ID/Hint : Microsoft
Duration : 1h 24mn
Bit rate : 22.4 Mbps
Width : 1 920 pixels
Height : 1 080 pixels
Display aspect ratio : 16:9
Frame rate : 24.000 fps
Original frame rate : 23.976 fps
Chroma subsampling : 4:2:0
Bit depth : 8 bits
Scan type : Progressive
Compression mode : Lossy
Bits/(Pixel*Frame) : 0.450
Stream size : 13.2 GiB (74%)
Title : 1920x1080p (2.35:1), 24 fps, VC-1 ~22976 kbps
Language : French
Audio #1
ID : 2
Format : AC-3
Format/Info : Audio Coding 3
Mode extension : CM (complete main)
Codec ID : A_AC3
Duration : 1h 24mn
Bit rate mode : Constant
Bit rate : 448 Kbps
Channel(s) : 6 channels
Channel positions : Front: L C R, Side: L R, LFE
Sampling rate : 48.0 KHz
Bit depth : 16 bits
Compression mode : Lossy
Stream size : 271 MiB (1%)
Title : RUS Dub DD 5.1, 48 kHz, 448 kbps
Language : Russian
Audio #2
ID : 3
Format : AC-3
Format/Info : Audio Coding 3
Mode extension : CM (complete main)
Codec ID : A_AC3
Duration : 1h 24mn
Bit rate mode : Constant
Bit rate : 448 Kbps
Channel(s) : 6 channels
Channel positions : Front: L C R, Side: L R, LFE
Sampling rate : 48.0 KHz
Bit depth : 16 bits
Compression mode : Lossy
Stream size : 271 MiB (1%)
Title : RUS MVO (R5 / Inis) DD 5.1, 48 kHz, 448 kbps
Language : Russian
Audio #3
ID : 4
Format : DTS
Format/Info : Digital Theater Systems
Codec ID : A_DTS
Duration : 1h 24mn
Bit rate mode : Constant
Bit rate : 1 510 Kbps
Channel(s) : 6 channels
Channel positions : Front: L C R, Side: L R, LFE
Sampling rate : 48.0 KHz
Bit depth : 24 bits
Compression mode : Lossy
Stream size : 913 MiB (5%)
Title : RUS AVO (Nemakhov) DTS 5.1, 48 kHz, 24 bit, 1536 kbps
Language : Russian
Audio #4
ID : 5
Format : DTS
Format/Info : Digital Theater Systems
Codec ID : A_DTS
Duration : 1h 24mn
Bit rate mode : Constant
Bit rate : 1 510 Kbps
Channel(s) : 6 channels
Channel positions : Front: L C R, Side: L R, LFE
Sampling rate : 48.0 KHz
Bit depth : 24 bits
Compression mode : Lossy
Stream size : 913 MiB (5%)
Title : RUS AVO (Zhivov) DTS 5.1, 48 kHz, 24 bit, 1536 kbps
Language : Russian
Audio #5
ID : 6
Format : AC-3
Format/Info : Audio Coding 3
Mode extension : CM (complete main)
Codec ID : A_AC3
Duration : 1h 24mn
Bit rate mode : Constant
Bit rate : 192 Kbps
Channel(s) : 2 channels
Channel positions : Front: L R
Sampling rate : 48.0 KHz
Bit depth : 16 bits
Compression mode : Lossy
Stream size : 116 MiB (1%)
Title : UKR MVO (Novyj Kanal) DD 2.0, 48 kHz, 192 kbps
Language : Ukrainian
Audio #6
ID : 7
Format : DTS
Format/Info : Digital Theater Systems
Codec ID : A_DTS
Duration : 1h 24mn
Bit rate mode : Constant
Bit rate : 1 510 Kbps
Channel(s) : 6 channels
Channel positions : Front: L C R, Side: L R, LFE
Sampling rate : 48.0 KHz
Bit depth : 24 bits
Compression mode : Lossy
Stream size : 913 MiB (5%)
Title : ENG Dub DTS 5.1, 48 kHz, 24 bit, 1536 kbps
Language : English
Audio #7
ID : 8
Format : DTS
Format/Info : Digital Theater Systems
Codec ID : A_DTS
Duration : 1h 24mn
Bit rate mode : Constant
Bit rate : 1 510 Kbps
Channel(s) : 6 channels
Channel positions : Front: L C R, Side: L R, LFE
Sampling rate : 48.0 KHz
Bit depth : 24 bits
Compression mode : Lossy
Stream size : 913 MiB (5%)
Title : FRA DTS 5.1, 48 kHz, 24 bit, 1536 kbps
Language : French
Text #1
ID : 9
Format : UTF-8
Codec ID : S_TEXT/UTF8
Codec ID/Info : UTF-8 Plain Text
Title : RUS R5 SRT/UTF8
Language : Russian
Text #2
ID : 10
Format : UTF-8
Codec ID : S_TEXT/UTF8
Codec ID/Info : UTF-8 Plain Text
Title : ENG SRT/UTF8
Language : English
Menu
00:00:00.000 : en:Opening Credits
00:02:43.747 : en:K2 Pays a Visit
00:11:38.239 : en:The Boss Is Unhappy
00:13:06.994 : en:Kidnapped & Rescued
00:20:00.740 : en:Into the Fire
00:22:49.158 : en:Damien, Undercover
00:33:28.213 : en:A New Assignment
00:36:15.755 : en:Leito Meets Damien
00:43:33.817 : en:Leito & Damien Team Up
00:49:42.102 : en:Into Taha's Lair
00:55:45.715 : en:A New Plan
01:02:24.780 : en:Chasing Leito & Damien
01:05:45.313 : en:An Uneasy Alliance
01:08:58.840 : en:Friends & Enemies
01:14:48.856 : en:Our Heros Drop a Bomb
01:20:34.534 : en:End Credits

Код:

Соавтор сценария и исполнитель одной из ролей Биби Насери - брат популярного французского актера Сэми Насери.

    Исполнитель одной из главных ролей Давид Бель, является создателем новой культовой дисциплины «Паркур».

    Первоначально на место режиссера фильма был приглашен Александр Ажа.

    Некоторые члены банды в 13-ом районе носят футболки с символикой футбольных клубов Американской Национальной футбольной лиги (НФЛ). Съемочная группа не добилась разрешения от Ассоциации игроков НФЛ демонстрировать имя хоть какого-либо игрока, таким образом, по рекомендации адвокатов студии имена игроков с футболок были убраны до того, как фильм был выпущен в прокат.

    Люк Бессон написал роль Лолы специально для Дани Вериссимо.

    Хотя Биби Насери был соавтором сценария, он был вынужден прослушиваться на роль Тахи вместе с другими актерами.

    Тони Д`Амарио рассматривался на роль Тахи, но в итоге получил предложение сыграть К2.

    Полностью производство фильма (идея, сценарий, кастинг, съемки и т.д.) заняло 10 месяцев, с января по октябрь 2004 г.

13-й район: Ультиматум / Banlieue 13 Ultimatum

Год выпуска: 2009
Страна: Франция
Жанр: акробатический экшн
Продолжительность: 01:40:57
Перевод: дубляж, многоголосный закадровый, авторский одноголосный, украинский дубляж и многоголосный закадровый, английский дубляж
Субтитры: русские, английские
Оглавление: 12 англоязычных глав

Режиссер: Патрик Алессандрин /Patrick Alessandrin

В ролях: Сирил Раффаэлли /Cyril Raffaelli/ (чемпион Франции по китайскому боксу), Дэвид Белль→ /David Belle/ (основатель паркура), Филипп Торретон /Philippe Torreton/, Даниэль Дюваль /Daniel Duval/, Элоди Юнг /Elodie Yung/, МС Жан Габен /MC Jean Gab'1/, Джеймс Диано /James Deano/, Лауни Муид /Laouni Mouhid/, Фабрис Флетцингер /Fabrice Fletzinger/, Пьер-Мари Москони /Pierre-Marie Mosconi/
Описание:Действие фильма происходит через два года после событий первой части. Стена, отделяющая неблагополучный "13-й район" от столицы, стала больше, выше и отчеркнула от цивилизации еще больше кварталов. Правительство как никогда заинтересовано в "урегулировании проблемы", и не без помощи разведывательных служб охотно инициирует беспорядки, стравливая друг с другом банды, сформировавшиеся в зоне отчуждения.
Но гангстеры идут против правительства, тем самым вынудив власти запустить пять ракет, чтобы уничтожить особо опасный район полностью, не оставив и камня на камне. Лейто и Дамьену снова приходится объединить усилия, чтобы спасти Париж от разрушения.

Качество: BDRemux (District 13 Double Feature 2004-2009 1080p Bluray VC1 DTSHD MA 5.1-BluWave)
Контейнер: Matroska
Видео кодек: VC-1
Аудио кодек: DTS
Видеопоток: 1920x1080p (2.35:1), 24 fps, VC-1 ~18990 kbps
Аудиопоток №1 (RUS): DD 5.1, 48 kHz, 448 kbps | профессиональный (полное дублирование)
Аудиопоток №2 (RUS): DD 5.1, 48 kHz, 448 kbps | профессиональный многоголосный закадровый (Киномания)
Аудиопоток №3 (RUS): DTS 5.1-ES, 48 kHz, 24 bit, 1536 kbps | авторский одноголосный (Строев)
Аудиопоток №4 (RUS): DD 5.1, 48 kHz, 448 kbps | авторский одноголосный (Лизнёв)
Аудиопоток №5 (UKR): DD 2.0, 48 kHz, 192 kbps | профессиональный (полное дублирование)
Аудиопоток №6 (UKR): DD 2.0, 48 kHz, 192 kbps | профессиональный многоголосный закадровый (ICTV)
Аудиопоток №7 (ENG): DTS 5.1, 48 kHz, 16 bit, 1536 kbps | профессиональный (полное дублирование)
Аудиопоток №8 (FRA): DTS 5.1-ES, 96 kHz, 24 bit, 1536 kbps
Субтитры №1 (RUS): SRT/UTF8 | Строев
Субтитры №2 (ENG): SRT/UTF8 | форсированные
Субтитры №3 (ENG): SRT/UTF8
Размер: 17.81 GiB (19 118 038 136 bytes) ~ BD25
скриншот  скриншот  скриншот  скриншот  скриншот  скриншот  

Код:

General
UniqueID : 212875713193722141212015896976383319547 (0xA0265EFCF3FDB74DBAFFA6EEB5449DFB)
Complete name : Banlieue.13.Ultimatum.2009.1080p.BDRemux.VC-1.DTS-MaLLIeHbKa.mkv
Format : Matroska
File size : 17.8 GiB
Duration : 1h 40mn
Overall bit rate : 25.3 Mbps
Movie name : Banlieue 13 Ultimatum (2009) BDRemux by MaLLIeHbKa
Encoded date : UTC 2010-12-10 07:21:13
Writing application : mkvmerge v4.4.0 ('Die Wiederkehr') built on Oct 31 2010 21:52:48
Writing library : libebml v1.0.0 + libmatroska v1.0.0
Cover : Yes
Video
ID : 1
Format : VC-1
Format profile : AP@L3
Codec ID : WVC1
Codec ID/Hint : Microsoft
Duration : 1h 40mn
Bit rate : 18.5 Mbps
Width : 1 920 pixels
Height : 1 080 pixels
Display aspect ratio : 16:9
Frame rate : 24.000 fps
Chroma subsampling : 4:2:0
Bit depth : 8 bits
Scan type : Progressive
Compression mode : Lossy
Bits/(Pixel*Frame) : 0.372
Stream size : 13.0 GiB (73%)
Title : 1920x1080p (2.35:1), 24 fps, VC-1 ~18990 kbps
Language : French
Audio #1
ID : 2
Format : AC-3
Format/Info : Audio Coding 3
Mode extension : CM (complete main)
Codec ID : A_AC3
Duration : 1h 40mn
Bit rate mode : Constant
Bit rate : 448 Kbps
Channel(s) : 6 channels
Channel positions : Front: L C R, Side: L R, LFE
Sampling rate : 48.0 KHz
Bit depth : 16 bits
Compression mode : Lossy
Stream size : 323 MiB (2%)
Title : RUS Dub DD 5.1, 48 kHz, 448 kbps
Language : Russian
Audio #2
ID : 3
Format : AC-3
Format/Info : Audio Coding 3
Mode extension : CM (complete main)
Codec ID : A_AC3
Duration : 1h 40mn
Bit rate mode : Constant
Bit rate : 448 Kbps
Channel(s) : 6 channels
Channel positions : Front: L C R, Side: L R, LFE
Sampling rate : 48.0 KHz
Bit depth : 16 bits
Compression mode : Lossy
Stream size : 323 MiB (2%)
Title : RUS MVO (Kinomania) DD 5.1, 48 kHz, 448 kbps
Language : Russian
Audio #3
ID : 4
Format : DTS
Format/Info : Digital Theater Systems
Format profile : ES
Codec ID : A_DTS
Duration : 1h 40mn
Bit rate mode : Constant
Bit rate : 1 510 Kbps
Channel(s) : 6 channels
Channel positions : Front: L C R, Side: L R, LFE
Sampling rate : 48.0 KHz
Bit depth : 24 bits
Compression mode : Lossy
Stream size : 1.06 GiB (6%)
Title : RUS AVO (Stroev) DTS 5.1, 48 kHz, 24 bit, 1536 kbps
Language : Russian
Audio #4
ID : 5
Format : AC-3
Format/Info : Audio Coding 3
Mode extension : CM (complete main)
Codec ID : A_AC3
Duration : 1h 40mn
Bit rate mode : Constant
Bit rate : 448 Kbps
Channel(s) : 6 channels
Channel positions : Front: L C R, Side: L R, LFE
Sampling rate : 48.0 KHz
Bit depth : 16 bits
Compression mode : Lossy
Stream size : 323 MiB (2%)
Title : RUS AVO (Liznyov) DD 5.1, 48 kHz, 448 kbps
Language : Russian
Audio #5
ID : 6
Format : AC-3
Format/Info : Audio Coding 3
Format profile : Dolby Digital
Mode extension : ME (music and effects)
Codec ID : A_AC3
Duration : 1h 40mn
Bit rate mode : Constant
Bit rate : 192 Kbps
Channel(s) : 2 channels
Channel positions : Front: L R
Sampling rate : 48.0 KHz
Bit depth : 16 bits
Compression mode : Lossy
Stream size : 139 MiB (1%)
Title : UKR Dub DD Surround 2.0, 48 kHz, 192 kbps
Language : Ukrainian
Audio #6
ID : 7
Format : AC-3
Format/Info : Audio Coding 3
Mode extension : CM (complete main)
Codec ID : A_AC3
Duration : 1h 40mn
Bit rate mode : Constant
Bit rate : 192 Kbps
Channel(s) : 2 channels
Channel positions : Front: L R
Sampling rate : 48.0 KHz
Bit depth : 16 bits
Compression mode : Lossy
Stream size : 139 MiB (1%)
Title : UKR MVO (ICTV) DD 2.0, 48 kHz, 192 kbps
Language : Ukrainian
Audio #7
ID : 8
Format : DTS
Format/Info : Digital Theater Systems
Codec ID : A_DTS
Duration : 1h 40mn
Bit rate mode : Constant
Bit rate : 1 510 Kbps
Channel(s) : 6 channels
Channel positions : Front: L C R, Side: L R, LFE
Sampling rate : 48.0 KHz
Bit depth : 16 bits
Compression mode : Lossy
Stream size : 1.06 GiB (6%)
Title : ENG Dub DTS 5.1, 48 kHz, 16 bit, 1536 kbps
Language : English
Audio #8
ID : 9
Format : DTS
Format/Info : Digital Theater Systems
Format profile : 96/24
Codec ID : A_DTS
Duration : 1h 40mn
Bit rate mode : Constant
Bit rate : 1 510 Kbps
Channel(s) : 6 channels
Channel positions : Front: L C R, Side: L R, LFE
Sampling rate : 96.0 KHz
Bit depth : 24 bits
Compression mode : Lossy
Stream size : 1.06 GiB (6%)
Title : FRA DTS 5.1, 96 kHz, 24 bit, 1536 kbps
Language : French
Text #1
ID : 10
Format : UTF-8
Codec ID : S_TEXT/UTF8
Codec ID/Info : UTF-8 Plain Text
Title : RUS Stroev SRT/UTF8
Language : Russian
Text #2
ID : 11
Format : UTF-8
Codec ID : S_TEXT/UTF8
Codec ID/Info : UTF-8 Plain Text
Title : ENG forced SRT/UTF8
Language : English
Text #3
ID : 12
Format : UTF-8
Codec ID : S_TEXT/UTF8
Codec ID/Info : UTF-8 Plain Text
Title : ENG SRT/UTF8
Language : English
Menu
00:00:00.000 : en:Police
00:08:17.250 : en:Mr Woo's Ready
00:13:15.208 : en:Freeze!
00:25:04.167 : en:The Operation Starts Tonight
00:34:50.500 : en:You Got the Wrong Man
00:43:22.458 : en:Drop the Phone
00:51:24.083 : en:Grab Him!
00:59:23.667 : en:Proceed With Evacuation
01:08:00.625 : en:Let's Go
01:14:30.458 : en:Where's the Party?
01:23:01.333 : en:He is Mine
01:33:33.250 : en:Credits

Код:

Большую часть сцен фильма отсняли в Белграде.

    После двух минут и десяти секунд титров идёт маленькая скрытая сцена. За столом сидят Президент Республики и главы преступных группировок 13-го района. Президент угощает их сигарами и спрашивает, знают ли они Жана Нувеля — всемирно известного архитектора. Видимо, имеется в виду, что Президент собирается привлечь Жана Нувеля к обещанной реконструкции 13-го района.

pb.wtf



Скачать 13-й через торрент http://i27.fastpic.ru/big/2011/1214/38/5b47d66df69485921c9ebca2a6cd4538.jpg Скачать фильм 13-й через торрент бесплантно в хорошем качестве Описание:2010й год, Париж. Из-за разгула преступности некоторые особо опасные районы французской столицы превращены в закрытые зоны и ... 7.5 10 2
Info! Золотая раздача, скачанное не засчитывается.
Торрент: Зарегистрирован [2011-12-14 13:08] · скачан: 26 раз
Статус: √ проверено
Размер: 56.69 GB
Как cкачать? Как скачать 13-й через торрент | qTorrent

% Раздел Тема Автор DL S | L
Фильмы (Blu-ray, BD-Remux, HDDVD) [ 27.56 GB ] 13-й район / Banlieue 13 [2004 Blu-ray +авторский ++профессиональный +Украинский] Бумер Скачать
1 | 0
Фильмы [HD 720p, 1080p] (Хороший звук DUB, MVO) [ 10.08 GB ] 13-й воин / 13th Warrior The [1999 BDRip ] PARKAN05 Скачать
1 | 0
Фильмы (Blu-ray, BD-Remux, HDDVD) [ 22.92 GB ] 13-й воин / The 13th Warrior [1999 BD-Remux DUB ] shuller Скачать
1 | 0
Чемпионат Европы [ 6.87 GB ] Чемпионат Европы 2020 / Отборочный турнир / Группа I / 8-й тур / Кипр - Россия / Первый канал HD [13.10.2019 Футбол HDTV/1080i TS/H.264 RU] bober100 Скачать
1 | 0
Наши сериалы [ 2.74 GB ] Чужая женщина / 1 - й сезон / 1 - 2 серия из 2 [2013 WEB-DLRip] Леонид Ильич Скачать
1 | 0
Премьер-Лига [ 1.53 GB ] Чемпионат Англии 2018-2019 / 1-й тур / Обзор тура / Матч! Футбол 1 HD [13.08.2018 Футбол IPTV/1080p/25fps MKV/H.264 RU] MEIDAN Скачать
1 | 0
Фильмы с авторской озвучкой [ 1.45 GB ] 13-й район: Кирпичные особняки / Brick Mansions [2014 BDRip] [AVO] killermax2013 Скачать
1 | 0

28-11-2019 20:33  

Отключить всю рекламу на сайте

    Дорогой пользователь! Огромная просьба, поблагодарите релизера, оцените раздачу и оставьте свои комментарий, если Вы скачали 13-й через торрент бесплатно! Внесите свою лепту в развитие PiratBit!
    Комментировать посты могут только пользователи прошедшие не сложную регистрацию
    Показать сообщения:    

    13-й через торрент
    Скачать бесплатно 13-й
    13-й скачать торрент
    13-й смотреть онлайн
    Cкачать фильм 13-й бесплатно
    13-й скачать торрент в хорошем качестве
    13-й смотреть онлайн бесплатно в хорошем качестве


    Вы не можете начинать темы
    Вы не можете отвечать на сообщения
    Вы не можете редактировать свои сообщения
    Вы не можете удалять свои сообщения
    Вы не можете голосовать в опросах
    Вы не можете прикреплять файлы к сообщениям
    Вы можете скачивать файлы