1 сезон

3 сезон

iTunes

1

Line

MVO

iTunes

13

1 сезон

RePack

30

Deluxe

pack

Лицензия

ВАЖНО

ИГРА 18+

pack

RePack

MK11

RePack

jed

RePack

fifa19

RePack

RDR2

RePack

NEED FOR SPEED™ PAYBACK

4 сезон

9 сезон

Бесстыжие 9 сезон

Все сериалы

все сериалы на PB.wtf

RePack

FAR CRY 5

Anonymous, доброй ночи, мы катастрофически не успеваем собрать деньги на оплату серверов, помогите нам пожалуйста 5,10,15р., для нас важна любая помощь . В качестве благодарности мы отключим Вам всю рекламу на сайте (укажите свой ник в строку Ваше имя)!

×
  
Magnet ссылка

Ундина / Ondine (Нил Джордан / Neil Jordan) [2009, драма, мелодрама, DVD9] R5 «Монолит» pb.wtf

Ундина через торрент pb.wtf

Размер: 5.17 GB | Добавлен: 9 лет 7 мес. назад | Торрент скачан:37 раз
Скачать  

16-12-2011 20:33 Ундина Скачать торрент  


Ундина / Ondine
«The truth is not what you know. It's what you believe.»
Страна: США, Ирландия
Студия: Irish Film Board, Little Wave Productions, Octagon Films, Radio Telefís Éireann (RTE), Wayfare Entertainment
Жанр: драма, мелодрама
Год выпуска: 2009
Мировая премьера: 14 сентября 2009
Дата выхода DVD: 29 ноября 2011, «Монолит»
Продолжительность: 01:28:26
Перевод: Профессиональный (многоголосый закадровый) [Лицензия]
Cубтитры: нет
Режиссер: Нил Джордан / Neil Jordan
В ролях: Колин Фаррелл, Алиция Бахледа-Цуруш, Дервла Кирван, Элисон Бэрри, Мэрион О’Двайр, Тони Карран, Мэри О’Ши, Джемма Ривз, Стивен Ри, Норма Шихан...
Описание: Жизнь рыбака Сиракуза и его дочки Энни переворачивается, когда главному герою в сети попадает прекрасная и таинственная незнакомка. Энни верит, что девушка — волшебное существо, а у Сиракуза все прозаичнее: он попросту безнадежно влюбляется в красавицу. Постепенно жизнь Сиракуза и всех его окружающих меняется, и они начинают подозревать, что в сети попалась не просто девушка, а морская нимфа.
Бонусы: нет

Релиз группы:
Качество: DVD9 R5
Формат: DVD-Video
Видео кодек: MPEG2
Аудио кодек: AC3
Видео: PAL 16:9 (720x576(0.606)) MPEG Video, 25,000 кадр/сек, 6288 Кбит/сек
Аудио: Russian (Dolby AC3, 6 ch) 384 Кбит/сек, 48,0 КГц



Title:
Size: 5.17 Gb ( 5 417 126,00 KBytes ) - DVD-9
Enabled regions: 1, 2, 3, 4, 5, 6, 7, 8

VTS_01 :
Play Length: 01:40:09
Video: PAL 16:9 (720x576) VBR, Auto Letterboxed
Audio:
Russian (Dolby AC3, 6 ch)

VTS_02 :
Play Length: 00:00:14+00:00:09+00:01:40+00:02:08+00:02:33
Video: PAL 16:9 (720x576) VBR, Auto Letterboxed
Audio:
Russian (Dolby AC3, 6 ch)
Общее
Полное имя : G:\Новинки 2011\Undina.2009.DVD9\VIDEO_TS\VTS_01_1.VOB
Формат : MPEG-PS
Размер файла : 1000 Мбайт
Продолжительность : 20 м.
Общий поток : 6807 Кбит/сек

Видео
Идентификатор : 224 (0xE0)
Формат : MPEG Video
Версия формата : Version 2
Профиль формата : Main@Main
Параметр BVOP формата : Да
Параметр матрицы формата : По умолчанию
Параметр GOP формата : M=3, N=15
Продолжительность : 20 м.
Вид битрейта : Переменный
Битрейт : 6288 Кбит/сек
Максимальный битрейт : 8000 Кбит/сек
Ширина : 720 пикселей
Высота : 576 пикселей
Соотношение сторон : 16:9
Частота кадров : 25,000 кадров/сек
Стандарт вещания : PAL
Цветовое пространство : YUV
Субдискретизация насыщенности : 4:2:0
Битовая глубина : 8 бит
Тип развёртки : Прогрессивная
Метод сжатия : С потерями
Бит/(Пиксели*Кадры) : 0.606
Размер потока : 924 Мбайт (92%)

Аудио
Идентификатор : 189 (0xBD)-128 (0x80)
Формат : AC-3
Формат/Информация : Audio Coding 3
Расширение режима : CM (complete main)
Режим смешивания : DVD-Video
Продолжительность : 20 м.
Вид битрейта : Постоянный
Битрейт : 384 Кбит/сек
Каналы : 6 каналов
Расположение каналов : Front: L C R, Side: L R, LFE
Частота : 48,0 КГц
Битовая глубина : 16 бит
Метод сжатия : С потерями
Задержка видео : -80 мс.
Размер потока : 56,4 Мбайт (6%)










pb.wtf



Скачать Ундина через торрент http://i1.imageban.ru/out/2011/12/16/67a54307069da30d9c39735e4d4e6315.png Скачать фильм Ундина через торрент бесплантно в хорошем качестве Описание: Жизнь рыбака Сиракуза и его дочки Энни переворачивается, когда главному герою в сети попадает прекрасная и таинственная ... 3.7 10 3
Info! Золотая раздача, скачанное не засчитывается.
Торрент: Зарегистрирован [2011-12-16 20:33] · скачан: 37 раз
Статус: √ проверено
Размер: 5.17 GB
Как cкачать? Как скачать Ундина через торрент | UTorrent

28-11-2019 20:33  

Отключить всю рекламу на сайте

17-12-2011 06:30 Ундина Скачать торрент  

рейтинг не плох,спасибо,будем поглядетьpb.wtf



    Дорогой пользователь! Огромная просьба, поблагодарите релизера, оцените раздачу и оставьте свои комментарий, если Вы скачали Ундина через торрент бесплатно! Внесите свою лепту в развитие PiratBit!
    Комментировать посты могут только пользователи прошедшие не сложную регистрацию
    Показать сообщения:    

    Ундина через торрент
    Скачать бесплатно Ундина
    Ундина скачать торрент
    Ундина смотреть онлайн
    Cкачать фильм Ундина бесплатно
    Ундина скачать торрент в хорошем качестве
    Ундина смотреть онлайн бесплатно в хорошем качестве


    Вы не можете начинать темы
    Вы не можете отвечать на сообщения
    Вы не можете редактировать свои сообщения
    Вы не можете удалять свои сообщения
    Вы не можете голосовать в опросах
    Вы не можете прикреплять файлы к сообщениям
    Вы можете скачивать файлы