Ссылка на приватное зеркало нашего сайта всего за 1$. Внимание количество ограничено!!!

2 сезон

iTunes

1 сезон

1

iTunes

iTunes

iTunes

1 сезон

RePack

30

ИГРА 18+

pack

ВАЖНО

!!Акция!!

Alien_RageХит недели

RePack

MK11
pack

Забери бонус

RePack

jed

!!Акция!!

Alien_Rage

RePack

fifa19

RePack

Assassins Creed: Odyssey

RePack

NEED FOR SPEED™ PAYBACK

4 сезон

9 сезон

Бесстыжие 9 сезон

Все сериалы

все сериалы на PB.wtf

RePack

FAR CRY 5
  

Жажда / Серии: 1-4 из 4 (Сергей (Алексей Колмогоров) [2011, военный, DVD9] R5 «Lizard Cinema Trade» pb.wtf

Жажда через торрент pb.wtf

Размер: 7.2 GB | Добавлен: 8 лет 10 мес. назад | Торрент скачан:92 раза
Скачать  

16-12-2011 20:44 Жажда Скачать торрент  


Жажда
Страна: Россия
Студия: Одесская киностудия, Талан
Жанр: военный
Год выпуска: 2011
Российская премьера: 9 мая 2011
Дата выхода DVD: 6 декабря 2011, «Lizard Cinema Trade»
Продолжительность: 4 х 00:43:00
Перевод: Оригинал [Лицензия]
Cубтитры: нет
Оригинальная аудиодорожка: русский
Режиссер: Алексей Колмогоров
В ролях: Тарас Бибич, Карина Андоленко, Олег Васильков, Геннадий Скарга, Сергей Алимпиев, Валерий Крупенин, Кирилл Бурдихин, Сергей Удовик, Станислав Беляев, Владимир Ямненко
Описание: Захватив находящуюся на Днестре в селе Беляевка водонапорную станцию, фашисты лишают осажденную Одессу стабильного водоснабжения. В то же время к русским в плен попадает румынский солдат русского происхождения Андрей, который до войны защищал диплом по захвату этой самой водонапорной станции.
Командование решает перевести пленного в разряд инструктора, чтобы он подготовил десант который вновь заполнит водохранилище, и сможет удерживать ее под контролем необходимое время. В то же время боец отряда Огонек замечает, что его возлюбленная Анна, симпатизирует Андрею. Сможет ли первый отряд захватить станцию, или придется посылать «золотой запас».

Бонусы: нет

Релиз группы:
Качество: DVD9 R5
Формат: DVD-Video
Видео кодек: MPEG2
Аудио кодек: AC3
Видео: PAL 4:3 (720x576(0.559)) MPEG Video, 25,000 кадр/сек, 5793 Кбит/сек
Аудио: Russian (Dolby AC3, 2 ch) 192 Кбит/сек, 48,0 КГц



Title:
Size: 7.20 Gb ( 7 547 772 KBytes ) - DVD-9
Enabled regions: 1, 2, 3, 4, 5, 6, 7, 8

VTS_01 :
Play Length: 00:00:25
Video: PAL 4:3 (720x576) VBR
Audio:
Russian (Dolby AC3, 6 ch)

VTS_02 :
Play Length: 00:43:02
Video: PAL 4:3 (720x576) VBR
Audio:
Russian (Dolby AC3, 2 ch)

VTS_03 :
Play Length: 00:42:50
Video: PAL 4:3 (720x576) VBR
Audio:
Russian (Dolby AC3, 2 ch)

VTS_04 :
Play Length: 00:43:05
Video: PAL 4:3 (720x576) VBR
Audio:
Russian (Dolby AC3, 2 ch)

VTS_05 :
Play Length: 00:43:09
Video: PAL 4:3 (720x576) VBR
Audio:
Russian (Dolby AC3, 2 ch)
Общее
Полное имя : G:\Новинки 2011\Zhazhda.2011.DVD9\VIDEO_TS\VTS_02_1.VOB
Формат : MPEG-PS
Размер файла : 1024 Мбайт
Продолжительность : 23 м.
Общий поток : 6107 Кбит/сек

Видео
Идентификатор : 224 (0xE0)
Формат : MPEG Video
Версия формата : Version 2
Профиль формата : Main@Main
Параметр BVOP формата : Да
Параметр матрицы формата : Выборочная
Продолжительность : 23 м.
Вид битрейта : Переменный
Битрейт : 5793 Кбит/сек
Максимальный битрейт : 8000 Кбит/сек
Ширина : 720 пикселей
Высота : 576 пикселей
Соотношение сторон : 4:3
Частота кадров : 25,000 кадров/сек
Стандарт вещания : PAL
Цветовое пространство : YUV
Субдискретизация насыщенности : 4:2:0
Битовая глубина : 8 бит
Тип развёртки : Чересстрочная
Порядок развёртки : Верхнее поле первое
Метод сжатия : С потерями
Бит/(Пиксели*Кадры) : 0.559
Размер потока : 971 Мбайт (95%)

Аудио
Идентификатор : 189 (0xBD)-128 (0x80)
Формат : AC-3
Формат/Информация : Audio Coding 3
Расширение режима : CM (complete main)
Режим смешивания : DVD-Video
Продолжительность : 23 м.
Вид битрейта : Постоянный
Битрейт : 192 Кбит/сек
Каналы : 2 канала
Расположение каналов : Front: L R
Частота : 48,0 КГц
Битовая глубина : 16 бит
Метод сжатия : С потерями
Размер потока : 32,2 Мбайт (3%)










pb.wtf



Скачать Жажда через торрент http://i1.imageban.ru/out/2011/12/16/0f5dadcf2771dfa4096b78cfccd90e4f.jpg Скачать фильм Жажда через торрент бесплантно в хорошем качестве Описание: Захватив находящуюся на Днестре в селе Беляевка водонапорную станцию, фашисты лишают осажденную Одессу стабильного водоснабжения. ... 5 10 5
Info! Золотая раздача, скачанное не засчитывается.
Торрент: Зарегистрирован [2011-12-16 20:44] · скачан: 92 раз
Статус: √ проверено
Размер: 7.2 GB
Как cкачать? Как скачать Жажда через торрент | qTorrent

28-11-2019 20:33  

Отключить всю рекламу на сайте

16-12-2011 23:30 Жажда Скачать торрент  

ну и как, очередной бред с любовью?pb.wtf



17-12-2011 02:33 Жажда Скачать торрент  

отличный фильм с одесским разговором и юморомpb.wtf



17-12-2011 06:37 Жажда Скачать торрент  

Хороший фильмpb.wtf



17-12-2011 08:53 Жажда Скачать торрент  

А немцев много убьют?
Вообще фильмы военной тематики должны состоять из военных действий,
а не превращаться в смазливую оперу про любовь!!!
Как пример, любой Советский фильм!
А не то что, млять, сейчас!pb.wtf



    Дорогой пользователь! Огромная просьба, поблагодарите релизера, оцените раздачу и оставьте свои комментарий, если Вы скачали Жажда через торрент бесплатно! Внесите свою лепту в развитие PiratBit!
    Комментировать посты могут только пользователи прошедшие не сложную регистрацию
    Показать сообщения:    

    Жажда через торрент
    Скачать бесплатно Жажда
    Жажда скачать торрент
    Жажда смотреть онлайн
    Cкачать фильм Жажда бесплатно
    Жажда скачать торрент в хорошем качестве
    Жажда смотреть онлайн бесплатно в хорошем качестве


    Вы не можете начинать темы
    Вы не можете отвечать на сообщения
    Вы не можете редактировать свои сообщения
    Вы не можете удалять свои сообщения
    Вы не можете голосовать в опросах
    Вы не можете прикреплять файлы к сообщениям
    Вы можете скачивать файлы