Ссылка на приватное зеркало нашего сайта всего за 1$. Внимание количество ограничено!!!

2 сезон

iTunes

1 сезон

1

2 сезон

2 сезон

iTunes

1 сезон

RePack

30

Новинка

ВАЖНО

ИГРА 18+

pack

RePack

MK11
pack

Забери бонус

RePack

jed

!!Акция!!

Alien_Rage

RePack

fifa19

RePack

Assassins Creed: Odyssey

RePack

NEED FOR SPEED™ PAYBACK

4 сезон

9 сезон

Бесстыжие 9 сезон

Все сериалы

все сериалы на PB.wtf

RePack

FAR CRY 5
  

Мешок с костями / Bag of Bones / Сезон: 1 / Серии: 1 и 2 (2) (Мик Гэррис / Mick Garris) [2011, ужасы, драма, HDTVRip] MVO (AlexFilm & NewStudio) pb.wtf

Мешок с костями через торрент pb.wtf

Размер: 1.68 GB | Добавлен: 8 лет 11 мес. назад | Торрент скачан:64 раза
Скачать  

20-12-2011 00:04 Мешок с костями Скачать торрент  

Мешок с костями / Bag of Bones

Год выпуска: 2011
Страна: США
Жанр: ужасы, драма
Продолжительность: 1 ~ 1:19:22 , 2 ~ 1:22:55
Перевод: Профессиональный (многоголосый, закадровый) (AlexFilm & NewStudio)
Субтитры: Отсутствуют
Режиссер: Мик Гэррис
В ролях: Пирс Броснан (Майк Нунэн), Аннабет Гиш (Джо Нунэн), Аника Нони Роуз (Сара Тидуэлл), Уильям Шэллерт (Макс Дивоур), Кэйтлин Кармайкл (Кира Дивоур), Дэвид Шефтелль (молодой Макс Дивоур), Гари Леверт (Джордж Футмен), Мелисса Джордж (Мэтти), Джейсон Пристли (Марти)
Описание: У писателя Майка Нунэна от аневризмы умирает жена Джоанна. После её гибели известный на весь мир автор мистических романов намеренно делает из себя затворника, отгородившись от остального мира. Но проходит несколько лет, и по стечению обстоятельств писатель встречает девушку Мэтти, в которую влюбляется, хотя и не желает признаваться в этом самому себе. Его жизнь начинается с чистого листа. После признания в своих чувствах новоявленной невесте Майклу придётся столкнуться с не менее жутким кошмаром, чем смерть собственной жены. Мистические приключения; реалистичные жуткие сны; жестокие родственники Мэтти, пытающиеся отправить писателя на тот свет, и конечно же появляющаяся время от времени Джоанна... Её призрак всё время пытается уберечь Майкла от неверного шага...
Похожие раздачи: Bag of Bones
Качество: HDTV
Формат: AVI
Видео кодек: XviD
Аудио кодек: MP3
Видео: 624x352 (1.77:1), 23.976 fps, XviD build 50 ~1210 kbps avg, 0.23 bit/pixel
Аудио Rus: 48 kHz, MPEG Layer 3, 2 ch, ~128.00 kbps avg
Аудио Eng: 48 kHz, MPEG Layer 3, 2 ch, ~128.00 kbps avg
720p версия
Релиз от: NewStudio
Перевод: Михаил Зеленский
Роли озвучивали:

Анна Тух
Андрей Федосов
Константин Погодаев
Михаил Суслов

Подготовка видео
: Koss
Работа со звуком: Koss
Общее
Полное имя : I:\Раздачи\Раздачи\Stephen King's Bag of Bones (AlexFilm & NewStudio)\Bag.of.Bones.Part.1.AlexFilm_NewStudio.avi
Формат : AVI
Формат/Информация : Audio Video Interleave
Размер файла : 776 Мбайт
Продолжительность : 1 ч. 20 м.
Общий поток : 1350 Кбит/сек
Программа кодирования : VirtualDubMod 1.5.10.2 (build 2540/release)
Библиотека кодирования : VirtualDubMod build 2540/release

Видео
Идентификатор : 0
Формат : MPEG-4 Visual
Профиль формата : Advanced Simple@L5
Параметр BVOP формата : 2
Параметр QPel формата : Нет
Параметр GMC формата : Без точки перехода
Параметр матрицы формата : Default (MPEG)
Идентификатор кодека : XVID
Идентификатор кодека/Подсказка : XviD
Продолжительность : 1 ч. 20 м.
Битрейт : 1080 Кбит/сек
Ширина : 624 пикселя
Высота : 352 пикселя
Соотношение сторон : 16:9
Частота кадров : 23,976 кадра/сек
Цветовое пространство : YUV
Субдискретизация насыщенности : 4:2:0
Битовая глубина : 8 бит
Тип развёртки : Прогрессивная
Метод сжатия : С потерями
Бит/(Пиксели*Кадры) : 0.205
Размер потока : 621 Мбайт (80%)
Библиотека кодирования : XviD 64

Аудио #1
Идентификатор : 1
Формат : MPEG Audio
Версия формата : Version 1
Профиль формата : Layer 3
Режим : Joint stereo
Расширение режима : MS Stereo
Идентификатор кодека : 55
Идентификатор кодека/Подсказка : MP3
Продолжительность : 1 ч. 20 м.
Вид битрейта : Постоянный
Битрейт : 128 Кбит/сек
Каналы : 2 канала
Частота : 48,0 КГц
Метод сжатия : С потерями
Размер потока : 73,6 Мбайт (9%)
Выравнивание : Соединение по промежуткам
Продолжительность промежутка : 42 мс. (1,00 видеокадр)
Время предзагрузки промежутка : 504 мс.

Аудио #2
Идентификатор : 2
Формат : MPEG Audio
Версия формата : Version 1
Профиль формата : Layer 3
Режим : Joint stereo
Расширение режима : MS Stereo
Идентификатор кодека : 55
Идентификатор кодека/Подсказка : MP3
Продолжительность : 1 ч. 20 м.
Вид битрейта : Постоянный
Битрейт : 128 Кбит/сек
Каналы : 2 канала
Частота : 48,0 КГц
Метод сжатия : С потерями
Размер потока : 73,6 Мбайт (9%)
Выравнивание : Соединение по промежуткам
Продолжительность промежутка : 42 мс. (1,00 видеокадр)
Время предзагрузки промежутка : 504 мс.

Внимание! Раздача ведётся путём добавления новых серий; при каждом добавлении создётся новый торрент. Чтобы начать докачку новой серии, пользователям необходимо сделать следующее:
(1) остановить скачивание,
(2) удалить старый торрент у себя из клиента (старые серии удалять не надо),
(3) скачать новый торрент и запустить его у себя в клиенте вместо старого, при этом указать клиенту путь в старую папку куда и должно происходить скачивание новых серий.

Ваш клиент при этом должен произвести хеширование (проверку) старой папки (если не производит сам - помогите ему сделать это), и будет докачивать только те серии которых у вас ещё нет. Старые серии при этом не удаляются, а продолжают раздаваться!

Eсли вы уже удалили старые серии, то предотвратить повторную закачку старых серий можно, отжав галочку в соответсвующих местах при запуске нового торрента. По возможности, желательно не удалять старые серии как можно дольше чтобы релизёр не столько продолжал раздавать старые серии, а смог сконцентрироваться на новых.
Добавлена 2 серия!
Сериал окончен.
pb.wtf



Скачать Мешок с костями через торрент http://pic.kartinco.top/images/2011/yojf5q2az4.jpg Скачать фильм Мешок с костями через торрент бесплантно в хорошем качестве Описание: У писателя Майка Нунэна от аневризмы умирает жена Джоанна. После её гибели известный на весь мир автор мистических романов ... 10 10 1
Info! Золотая раздача, скачанное не засчитывается.
Торрент: Зарегистрирован [2011-12-22 19:05] · скачан: 64 раз
Статус: √ проверено
Размер: 1.68 GB
Как cкачать? Как скачать Мешок с костями через торрент | qTorrent

% Раздел Тема Автор DL S | L
Зарубежные сериалы [ 6.21 GB ] Мешок с костями / Bag of Bones / Сезон: 1 / Серии: 1 и 2 [2011 HDTV 720p] MVO Messa-fan Скачать
1 | 0


Последний раз редактировалось: Messa-fan (2011-12-22 19:07), всего редактировалось 3 раз(а)

28-11-2019 20:33  

Отключить всю рекламу на сайте

20-12-2011 06:10 Мешок с костями Скачать торрент  

Фильм Бомба, всем любителям такого жанра..............pb.wtf



20-12-2011 08:33 Мешок с костями Скачать торрент  

Мне тоже понравился, а вот вопрос? Когда продолжения ждать?pb.wtf



20-12-2011 17:44 Мешок с костями Скачать торрент  

DispetcherD
Вторая часть уже полностью озвучена, так что очень скоро.pb.wtf



22-12-2011 19:06 Мешок с костями Скачать торрент  

Добавлена 2 серия!
Сериал окончен.
Обратите внимание, первая серия заменена!
pb.wtf



    Дорогой пользователь! Огромная просьба, поблагодарите релизера, оцените раздачу и оставьте свои комментарий, если Вы скачали Мешок с костями через торрент бесплатно! Внесите свою лепту в развитие PiratBit!
    Комментировать посты могут только пользователи прошедшие не сложную регистрацию
    Показать сообщения:    

    Мешок с костями через торрент
    Скачать бесплатно Мешок с костями
    Мешок с костями скачать торрент
    Мешок с костями смотреть онлайн
    Cкачать фильм Мешок с костями бесплатно
    Мешок с костями скачать торрент в хорошем качестве
    Мешок с костями смотреть онлайн бесплатно в хорошем качестве


    Вы не можете начинать темы
    Вы не можете отвечать на сообщения
    Вы не можете редактировать свои сообщения
    Вы не можете удалять свои сообщения
    Вы не можете голосовать в опросах
    Вы не можете прикреплять файлы к сообщениям
    Вы можете скачивать файлы