1 сезон

3 сезон

iTunes

1

iTunes

MVO

iTunes

13

1 сезон

RePack

30

Deluxe

pack

Лицензия

ВАЖНО

ИГРА 18+

pack

RePack

MK11

RePack

jed

RePack

fifa19

RePack

RDR2

RePack

NEED FOR SPEED™ PAYBACK

4 сезон

9 сезон

Бесстыжие 9 сезон

Все сериалы

все сериалы на PB.wtf

RePack

FAR CRY 5

Anonymous, доброй ночи, мы катастрофически не успеваем собрать деньги на оплату серверов, помогите нам пожалуйста 5,10,15р., для нас важна любая помощь . В качестве благодарности мы отключим Вам всю рекламу на сайте (укажите свой ник в строку Ваше имя)!

×
  
Magnet ссылка

Резня / Carnage (Роман Полански / Roman Polanski) [2011, Германия, Франция, Испания, Польша, драма, комедия, DVD5 (Сжатый)] R5 pb.wtf

Резня через торрент pb.wtf

Размер: 4.34 GB | Добавлен: 9 лет 7 мес. назад | Торрент скачан:112 раз
Скачать  

21-12-2011 12:51 Резня Скачать торрент  


Резня / Carnage
«A new comedy of no manners.»
Страна: Германия, Франция, Испания, Польша
Студия: Constantin Film Produktion GmbH, SBS Productions, SPI Poland
Жанр: драма, комедия
Год выпуска: 2011
Мировая премьера: 1 сентября 2011
Российская премьера: 8 декабря 2011, «Люксор»
Дата выхода DVD: 22 декабря 2011, «Новый Диск»
Продолжительность: 01:16:09
Перевод: Профессиональный (дублированный) [Лицензия]
Cубтитры: нет
Режиссер: Роман Полански / Roman Polanski
В ролях: Джоди Фостер, Кейт Уинслет, Кристоф Вальц, Джон Си Райли, Элвис Полански, Элиот Бергер, Joseph Rezwin, Натан Риппи, Таня Лопер, Джули Адамс...
Описание: История двух родительских пар, которые знакомятся после того, как их сыновья сходятся в школьной драке. При этом каждая пара оспаривает родительские навыки другой, вместо того, чтобы разглядеть собственные проблемы.
Бонусы: Фильм о фильме

Релиз группы:
Качество: DVD5 (Сжатый)
Формат: DVD-Video
Видео кодек: MPEG2
Аудио кодек: AC3
Видео: PAL 16:9 (720x576(0.570)) MPEG Video, 25,000 кадр/сек, 5912 Кбит/сек
Аудио: Russian (Dolby AC3, 6 ch) 448 Кбит/сек, 48,0 КГц



Title:
Size: 4.34 Gb ( 4 551 742,00 KBytes ) - DVD-5
Enabled regions: 1, 2, 3, 4, 5, 6, 7, 8

VTS_01 :
Play Length: 00:00:19
Video: PAL 4:3 (720x576) VBR
Audio:
Russian (Dolby AC3, 2 ch)

VTS_02 :
Play Length: 00:00:02
Video: PAL 16:9 (720x576) VBR, Auto Letterboxed
Audio:
Russian (Dolby AC3, 2 ch)

VTS_03 :
Play Length: 01:16:09
Video: PAL 16:9 (720x576) VBR, Auto Letterboxed
Audio:
Russian (Dolby AC3, 6 ch)

VTS_04 :
Play Length: 00:33:48
Video: PAL 16:9 (720x576) VBR, Auto Letterboxed
Audio:
Russian (Dolby AC3, 2 ch)
Полное имя : G:\Новинки 2011\Reznya.2011.DVD5\VIDEO_TS\VTS_03_1.VOB
Формат : MPEG-PS
Размер файла : 1024 Мбайт
Продолжительность : 22 м.
Общий поток : 6489 Кбит/сек

Видео
Идентификатор : 224 (0xE0)
Формат : MPEG Video
Версия формата : Version 2
Профиль формата : Main@Main
Параметр BVOP формата : Да
Параметр матрицы формата : Выборочная
Продолжительность : 22 м.
Вид битрейта : Переменный
Битрейт : 5912 Кбит/сек
Максимальный битрейт : 9800 Кбит/сек
Ширина : 720 пикселей
Высота : 576 пикселей
Соотношение сторон : 16:9
Частота кадров : 25,000 кадров/сек
Стандарт вещания : PAL
Цветовое пространство : YUV
Субдискретизация насыщенности : 4:2:0
Битовая глубина : 8 бит
Тип развёртки : Чересстрочная
Порядок развёртки : Верхнее поле первое
Метод сжатия : С потерями
Бит/(Пиксели*Кадры) : 0.570
Размер потока : 933 Мбайт (91%)

Аудио
Идентификатор : 189 (0xBD)-128 (0x80)
Формат : AC-3
Формат/Информация : Audio Coding 3
Расширение режима : CM (complete main)
Режим смешивания : DVD-Video
Продолжительность : 22 м.
Вид битрейта : Постоянный
Битрейт : 448 Кбит/сек
Каналы : 6 каналов
Расположение каналов : Front: L C R, Side: L R, LFE
Частота : 48,0 КГц
Битовая глубина : 16 бит
Метод сжатия : С потерями
Размер потока : 70,7 Мбайт (7%)










pb.wtf



Скачать Резня через торрент http://i1.imageban.ru/out/2011/12/21/9d6379e26f177ca41733fa9cee3e7186.jpg Скачать фильм Резня через торрент бесплантно в хорошем качестве Описание: История двух родительских пар, которые знакомятся после того, как их сыновья сходятся в школьной драке. При этом каждая пара ... 4.6 10 11
Info! Золотая раздача, скачанное не засчитывается.
Торрент: Зарегистрирован [2011-12-21 12:51] · скачан: 112 раз
Статус: √ проверено
Размер: 4.34 GB
Как cкачать? Как скачать Резня через торрент | UTorrent

% Раздел Тема Автор DL S | L
Фильмы (DVD фильмы) [ 4.75 GB ] Резня / Carnage [2011 DVD9] R5 voovaz Скачать
1 | 0

28-11-2019 20:33  

Отключить всю рекламу на сайте

    Дорогой пользователь! Огромная просьба, поблагодарите релизера, оцените раздачу и оставьте свои комментарий, если Вы скачали Резня через торрент бесплатно! Внесите свою лепту в развитие PiratBit!
    Комментировать посты могут только пользователи прошедшие не сложную регистрацию
    Показать сообщения:    

    Резня через торрент
    Скачать бесплатно Резня
    Резня скачать торрент
    Резня смотреть онлайн
    Cкачать фильм Резня бесплатно
    Резня скачать торрент в хорошем качестве
    Резня смотреть онлайн бесплатно в хорошем качестве


    Вы не можете начинать темы
    Вы не можете отвечать на сообщения
    Вы не можете редактировать свои сообщения
    Вы не можете удалять свои сообщения
    Вы не можете голосовать в опросах
    Вы не можете прикреплять файлы к сообщениям
    Вы можете скачивать файлы