Всегда рабочее зеркало без VPN и Proxy просто перед .vidak.icu напиши любое слово или цифру, Пример http://nsqv.vidak.icu

Лицензия

MVO

1 сезон

1

1 сезон

iTunes

1 сезон

13

1 сезон

Deluxe

pack

Рекомендуем

Repack

30

ВАЖНО

RePack

MK11

RePack

jed

RePack

fifa19

RePack

RDR2

RePack

NEED FOR SPEED™ PAYBACK

Кинопоиск HD

6 сезон

 Острые козырьки 6 сезон

Все сериалы

все сериалы на PB.wtf

RePack

FAR CRY 5
  
Magnet ссылка

Кошачья жизнь / Une Vie de Chat (Жан-Луи Фелисиоли, Ален Ганьоль) [2010 г., мультфильм, криминал, детектив, DVDRip] pb.wtf

Кошачья жизнь через торрент pb.wtf

Размер: 757 MB | Добавлен: 10 лет назад | Торрент скачан:103 раза
Смотреть онлайн Кошачья жизнь | Скачать    Ребята, помогите собрать деньги на оплату серверов!!!

22-12-2011 14:47 Кошачья жизнь Скачать торрент  

Кошачья жизнь / Une Vie de Chat

Год выпуска: 2010
Страна: Франция, Нидерланды, Швейцария, Бельгия
Жанр: мультфильм, криминал, детектив
Продолжительность: 01:04:31
Перевод: Профессиональный (одноголосый)

Режиссер: Жан-Луи Фелисиоли, Ален Ганьоль
Продюссер: Жак-Реми Жерар, Эммануель Бернард, Annemie Degryse
Сценарий: Ален Ганьоль, Жак-Реми Жерар

Премьера в мире: 15 октября 2010

http://www.imdb.com/title/tt1673702/
http://www.kinopoisk.ru/level/1/film/532836/

Описание: Дино — кот, ведущий двойную жизнь. Днем он живет с девочкой Зои и ее матрью офицером полиции, а по ночам участвует в ограблениях. Но однажды Зои проследила кота Дино…

Похожие раздачи: Кошачья жизнь

Качество: DVDRip
Формат: AVI
Видео кодек: XviD
Аудио кодек: MP3
Видео: 720x384 (1.88:1), 23.976 fps, XviD build 50 ~1370 kbps avg, 0.21 bit/pixel
Аудио: (русский) 44.1 kHz, MPEG Layer 3, 2 ch, ~128.00 kbps avg
Аудио: (франц)48.0 kHz, MPEG Layer 3, 2 ch, ~128.00 kbps avg
Субтитры: русские (srt)

Код:

00:01:09,404 --> 00:01:12,225
-Да!
Что там такое? Забили?
2
00:01:12,226 --> 00:01:14,621
Нет, только хотел убедится, что вы не спите.
3
00:01:14,712 --> 00:01:16,274
Ох уж, умник!
4
00:01:17,023 --> 00:01:19,049
всегда мне достается самая Тяжелая работа.
5
00:01:59,789 --> 00:02:02,325
-Ponk, вы меня слышите?
Да, я здесь.
6
00:02:02,634 --> 00:02:04,791
Что там еще?
-Ты что-нибудь видел на экране?
7
00:02:04,792 --> 00:02:07,023
Нет. ..
А что? Есть проблемы?
8
00:02:07,024 --> 00:02:09,484
Да нет. ..
Я подумал ...
9
00:02:09,827 --> 00:02:11,776
но наверное мне это приснилось.
10
00:02:30,239 --> 00:02:33,386
Дон, ты был прав!
кто-то стоял за тобой!
11
00:02:33,387 --> 00:02:34,800
Ты слышишь?
оглянись.
12
00:02:34,801 --> 00:02:36,912
Где?
Там никого нет позади меня.
13
00:02:36,913 --> 00:02:39,059
О господи!
Черт!
14
00:02:42,345 --> 00:02:46,385
Он находится на верхнем этаже.
Я иду. Он не сможет сбежать.
15
00:02:46,771 --> 00:02:49,381
Перехватим его на углу.
Где ты?
16
00:02:51,043 --> 00:02:55,064
Я уже рядом. А ты?
Где именно?
17
00:03:07,902 --> 00:03:11,080
<b> ЖИЗНЬ КОТА </ B>
18
00:04:21,861 --> 00:04:26,057
Ты меня напугала, Зои.
Я не услышала, как ты идешь.
19
00:04:26,419 --> 00:04:28,159
А это что?
20
00:04:28,160 --> 00:04:30,832
Дино принес вам
новый подарок?

Код:

General
Complete name                  : H:\Um gato em Paris\test.avi
Format                         : AVI
Format/Info                    : Audio Video Interleave
File size                      : 757 MiB
Duration                       : 1h 4mn
Overall bit rate               : 1 641 Kbps
Writing application            : VirtualDubMod 1.5.10.2 (build 2540/release)
Writing library                : VirtualDubMod build 2540/release
Video
ID                             : 0
Format                         : MPEG-4 Visual
Format profile                 : Advanced [email protected]
Format settings, BVOP          : 2
Format settings, QPel          : No
Format settings, GMC           : No warppoints
Format settings, Matrix        : Default (H.263)
Codec ID                       : XVID
Codec ID/Hint                  : XviD
Duration                       : 1h 4mn
Bit rate                       : 1 371 Kbps
Width                          : 720 pixels
Height                         : 384 pixels
Display aspect ratio           : 1.875
Frame rate                     : 23.976 fps
Color space                    : YUV
Chroma subsampling             : 4:2:0
Bit depth                      : 8 bits
Scan type                      : Progressive
Compression mode               : Lossy
Bits/(Pixel*Frame)             : 0.207
Stream size                    : 633 MiB (84%)
Writing library                : XviD 1.2.1 (UTC 2008-12-04)
Audio #1
ID                             : 1
Format                         : MPEG Audio
Format version                 : Version 1
Format profile                 : Layer 3
Codec ID                       : 55
Codec ID/Hint                  : MP3
Duration                       : 1h 4mn
Bit rate mode                  : Constant
Bit rate                       : 128 Kbps
Channel(s)                     : 2 channels
Sampling rate                  : 48.0 KHz
Compression mode               : Lossy
Stream size                    : 59.1 MiB (8%)
Alignment                      : Split accross interleaves
Interleave, duration           : 42 ms (1.00 video frame)
Interleave, preload duration   : 500 ms
Audio #2
ID                             : 2
Format                         : MPEG Audio
Format version                 : Version 1
Format profile                 : Layer 3
Codec ID                       : 55
Codec ID/Hint                  : MP3
Duration                       : 1h 4mn
Bit rate mode                  : Constant
Bit rate                       : 128 Kbps
Channel(s)                     : 2 channels
Sampling rate                  : 44.1 KHz
Compression mode               : Lossy
Stream size                    : 59.1 MiB (8%)
Alignment                      : Split accross interleaves
Interleave, duration           : 42 ms (1.00 video frame)
Interleave, preload duration   : 500 ms
Writing library                : LAME3.98r
Encoding settings              : -m s -V 4 -q 3 -lowpass 17 -b 128

[URL=http:// СПАМ




pb.wtf



Скачать Кошачья жизнь через торрент http://i28.fastpic.ru/big/2011/1222/1e/bfcced015681aa0502bfdb2f58f0651e.jpg Скачать, смотреть онлайн Кошачья жизнь бесплантно в хорошем качестве Описание: Дино — кот, ведущий двойную жизнь. Днем он живет с девочкой Зои и ее матрью офицером полиции, а по ночам участвует в ограблениях. ... 5 10 5
Info! Золотая раздача, скачанное не засчитывается.
Торрент: Зарегистрирован [2011-12-22 14:47] · скачан: 103 раз
Статус: √ проверено
Размер: 757 MB
Как cкачать? Как скачать Кошачья жизнь через торрент | UTorrent

28-11-2019 20:33  

Отключить вcю реклaмy на сайте

    Дорогой пользователь! Огромная просьба, поблагодарите релизера, оцените раздачу и оставьте свои комментарий, если Вы скачали Кошачья жизнь через торрент бесплатно!
    Комментировать посты могут только пользователи прошедшие не сложную регистрацию
    Показать сообщения:    

    Кошачья жизнь через торрент
    Скачать бесплатно Кошачья жизнь
    Кошачья жизнь скачать торрент
    Кошачья жизнь смотреть онлайн
    Cкачать фильм Кошачья жизнь бесплатно
    Кошачья жизнь скачать торрент в хорошем качестве
    Кошачья жизнь смотреть онлайн бесплатно в хорошем качестве


    Вы не можете начинать темы
    Вы не можете отвечать на сообщения
    Вы не можете редактировать свои сообщения
    Вы не можете удалять свои сообщения
    Вы не можете голосовать в опросах
    Вы не можете прикреплять файлы к сообщениям
    Вы можете скачивать файлы