Ссылка на приватное зеркало нашего сайта всего за 1$. Внимание количество ограничено!!!

2 сезон

iTunes

1 сезон

1

iTunes

iTunes

iTunes

1 сезон

RePack

30

ИГРА 18+

pack

ВАЖНО

!!Акция!!

Alien_RageХит недели

RePack

MK11
pack

Забери бонус

RePack

jed

!!Акция!!

Alien_Rage

RePack

fifa19

RePack

Assassins Creed: Odyssey

RePack

NEED FOR SPEED™ PAYBACK

4 сезон

9 сезон

Бесстыжие 9 сезон

Все сериалы

все сериалы на PB.wtf

RePack

FAR CRY 5
  

Без причин / No Reason (Олаф Иттенбах / Olaf Ittenbach) [2010, Германия, боевик, DVDRip] VO + Original Ger pb.wtf

Без причин через торрент pb.wtf

Размер: 1.37 GB | Добавлен: 8 лет 10 мес. назад | Торрент скачан:29 раз
Скачать  

22-12-2011 19:14 Без причин Скачать торрент  

Без причин / No Reason Страна: Германия
Год выпуска: 2010
Жанр: боевик
Продолжительность: 01:16:35
Перевод: Любительский одноголосый закадровый [HaseRiLLoPaW]
Cубтитры: нет
Оригинальная аудиодорожка: немецкий



Режиссер: Олаф Иттенбах / Olaf Ittenbach

В ролях: Ирэн Холцфуртнер, Матиас Энджел, Андреас Пейп, Анника Штрауб, Маркус Хеттич, Ральф Вильманн, Тимоти Бальм

Описание: Чтобы немного расслабиться и преодолеть эмоциональный шок от неприятных новостей навалившихся на неё в одночасье, Дженнифер решает принять ванну, и тут же засыпает в ней. Когда она просыпается, то с ужасом видит, что находится на полу в своей квартире, вся в крови и в окружении расчленённых человеческих тел...

Внимание! Фильм содержит ненормативную лексику!



IMDb


Качество видео: DVDRip
Формат видео: AVI
Видео кодек: XviD
Аудио кодек: MP3
Видео: 704x384 (1.83:1), 23.976 fps, XviD build 58 ~2225 kbps avg, 0.34 bit/pixel
Аудио 1: 48 kHz, MPEG Layer 3, 2 ch, ~128.00 kbps avg (русский)
Аудио 2: 48 kHz, AC3 Dolby Digital, 2/0 (L,R) Surround Encoded ch, ~192 kbps (немецкий)
Общее
Полное имя : D:\No.Reason.2010.DVDRip.avi
Формат : AVI
Формат/Информация : Audio Video Interleave
Размер файла : 1,37 Гбайт
Продолжительность : 1 ч. 16 м.
Общий поток : 2560 Кбит/сек
Программа кодирования : VirtualDubMod 1.5.10.3 | www.virtualdub-fr.org || (build 2550/release)
Библиотека кодирования : VirtualDubMod build 2550/release
Видео
Идентификатор : 0
Формат : MPEG-4 Visual
Профиль формата : Advanced Simple@L5
Параметр BVOP формата : 1
Параметр QPel формата : Нет
Параметр GMC формата : Без точки перехода
Параметр матрицы формата : Default (MPEG)
Идентификатор кодека : XVID
Идентификатор кодека/Подсказка : XviD
Продолжительность : 1 ч. 16 м.
Битрейт : 2226 Кбит/сек
Ширина : 704 пикселя
Высота : 384 пикселя
Соотношение сторон : 16:9
Частота кадров : 23,976 кадра/сек
Цветовое пространство : YUV
Субдискретизация насыщенности : 4:2:0
Битовая глубина : 8 бит
Тип развёртки : Прогрессивная
Метод сжатия : С потерями
Бит/(Пиксели*Кадры) : 0.343
Размер потока : 1,19 Гбайт (87%)
Библиотека кодирования : XviD 58
Аудио #1
Идентификатор : 1
Формат : MPEG Audio
Версия формата : Version 1
Профиль формата : Layer 3
Режим : Joint stereo
Расширение режима : MS Stereo
Идентификатор кодека : 55
Идентификатор кодека/Подсказка : MP3
Продолжительность : 1 ч. 16 м.
Вид битрейта : Постоянный
Битрейт : 128 Кбит/сек
Каналы : 2 канала
Частота : 48,0 КГц
Метод сжатия : С потерями
Размер потока : 70,1 Мбайт (5%)
Выравнивание : Соединение по промежуткам
Продолжительность промежутка : 42 мс. (1,00 видеокадр)
Время предзагрузки промежутка : 504 мс.
Аудио #2
Идентификатор : 2
Формат : AC-3
Формат/Информация : Audio Coding 3
Профиль формата : Dolby Digital
Расширение режима : CM (complete main)
Идентификатор кодека : 2000
Продолжительность : 1 ч. 16 м.
Вид битрейта : Постоянный
Битрейт : 192 Кбит/сек
Каналы : 2 канала
Расположение каналов : Front: L R
Частота : 48,0 КГц
Битовая глубина : 16 бит
Метод сжатия : С потерями
Размер потока : 105 Мбайт (7%)
Выравнивание : Разделение по промежуткам
Продолжительность промежутка : 42 мс. (1,00 видеокадр)
Время предзагрузки промежутка : 500 мс.



pb.wtf



Скачать Без причин через торрент http://pic.kartinco.top/images/2011/9bowo1yae8.jpg Скачать фильм Без причин через торрент бесплантно в хорошем качестве Описание: Чтобы немного расслабиться и преодолеть эмоциональный шок от неприятных новостей навалившихся на неё в одночасье, Дженнифер ... 5 10 2
Info! Золотая раздача, скачанное не засчитывается.
Торрент: Зарегистрирован [2011-12-22 19:14] · скачан: 29 раз
Статус: √ проверено
Размер: 1.37 GB
Как cкачать? Как скачать Без причин через торрент | qTorrent

28-11-2019 20:33  

Отключить всю рекламу на сайте

    Дорогой пользователь! Огромная просьба, поблагодарите релизера, оцените раздачу и оставьте свои комментарий, если Вы скачали Без причин через торрент бесплатно! Внесите свою лепту в развитие PiratBit!
    Комментировать посты могут только пользователи прошедшие не сложную регистрацию
    Показать сообщения:    

    Без причин через торрент
    Скачать бесплатно Без причин
    Без причин скачать торрент
    Без причин смотреть онлайн
    Cкачать фильм Без причин бесплатно
    Без причин скачать торрент в хорошем качестве
    Без причин смотреть онлайн бесплатно в хорошем качестве


    Вы не можете начинать темы
    Вы не можете отвечать на сообщения
    Вы не можете редактировать свои сообщения
    Вы не можете удалять свои сообщения
    Вы не можете голосовать в опросах
    Вы не можете прикреплять файлы к сообщениям
    Вы можете скачивать файлы