Ссылка на приватное зеркало нашего сайта всего за 1$. Внимание количество ограничено!!!

2 сезон

iTunes

1 сезон

1

2 сезон

2 сезон

iTunes

1 сезон

RePack

30

Ultimate

ВАЖНО

ИГРА 18+

pack

RePack

MK11
pack

Забери бонус

RePack

jed

!!Акция!!

Alien_Rage

RePack

fifa19

RePack

Assassins Creed: Odyssey

RePack

NEED FOR SPEED™ PAYBACK

4 сезон

9 сезон

Бесстыжие 9 сезон

Все сериалы

все сериалы на PB.wtf

RePack

FAR CRY 5
  

Босс / Boss / Сезон: 1 / Серии: 1-8 (Полный сезон) (Марио Ван Пиблз) [2011, Драма, HDTVRip] (NewStudio / БЯКО Рекордс) pb.wtf

Босс через торрент pb.wtf

Размер: 5.47 GB | Добавлен: 8 лет 10 мес. назад | Торрент скачан:20 раз
Скачать  

22-12-2011 21:47 Босс Скачать торрент  

Босс / Boss
Год выпуска: 2011
Страна: США
Жанр: драма
Продолжительность: ~01:00:00
Перевод: Профессиональный (двухголосый закадровый) (БЯКО Рекордс)
Субтитры: Отсутствуют
Режиссер: Марио Ван Пиблз
В ролях: Келси Грэммер, Конни Нильсен, Джеймс Винсент Мередит, Кэтлин Робертсон, Ханна Уэр, Джефф Хефнер, Стив Ленц, Анита Николь Браун
Описание: Сюжет рассказывает о мэре Чикаго, страдающем тяжелым психическим заболеванием и, в результате, нарушениями памяти и рассудка, но окружающие, включая и его жену, об этом не догадываются. Starz победил в битве за съемки сериала и заказал сразу первый сезон из 8 серий, не дожидаясь выхода на экраны, сериал продлили на второй сезон. Посмотрим, оправдаются ли ожидания создателей Boss.
Похожие раздачи: Boss
Качество: HDTVRip
Формат: AVI
Видео кодек: XviD
Аудио кодек: MP3
Видео: 720x400 (1.80), 23.976 fps, XviD MPEG-4, ~1400 kbps, 0.21 bit/pixel
Аудио Rus: 48 kHz, MPEG Layer 3, 2 ch, ~128.00 kbps avg
Аудио Eng: 48 kHz, MPEG Layer 3, 2 ch, ~128.00 kbps avg
720p версия
Релиз от: NewStudio
Перевод: Илья Белкин
Озвучка: Константин Погодаев, Анна Тух (БЯКО Рекордс)
Работа со звуком: koss
Подготовка видео: koss

Внимание!!! В сериале присутствует ненормативная лексика!
Общее
Полное имя : I:\Раздачи\Раздачи\Boss - Season 1 (NewStudio)\Boss.s01e01.NewStudio.TV.avi
Формат : AVI
Формат/Информация : Audio Video Interleave
Размер файла : 700 Мбайт
Продолжительность : 58 м.
Режим общего битрейта : Переменный
Общий поток : 1673 Кбит/сек
Программа кодирования : VirtualDubMod 1.5.10.2 (build 2540/release)
Библиотека кодирования : VirtualDubMod build 2540/release

Видео
Идентификатор : 0
Формат : MPEG-4 Visual
Профиль формата : Advanced Simple@L5
Параметр BVOP формата : 2
Параметр QPel формата : Нет
Параметр GMC формата : Без точки перехода
Параметр матрицы формата : Default (MPEG)
Идентификатор кодека : XVID
Идентификатор кодека/Подсказка : XviD
Продолжительность : 58 м.
Битрейт : 1400 Кбит/сек
Ширина : 720 пикселей
Высота : 400 пикселей
Соотношение сторон : 16:9
Частота кадров : 23,976 кадра/сек
Цветовое пространство : YUV
Субдискретизация насыщенности : 4:2:0
Битовая глубина : 8 бит
Тип развёртки : Прогрессивная
Метод сжатия : С потерями
Бит/(Пиксели*Кадры) : 0.203
Размер потока : 586 Мбайт (84%)
Библиотека кодирования : XviD 64

Аудио #1
Идентификатор : 1
Формат : MPEG Audio
Версия формата : Version 1
Профиль формата : Layer 3
Режим : Joint stereo
Расширение режима : MS Stereo
Идентификатор кодека : 55
Идентификатор кодека/Подсказка : MP3
Продолжительность : 58 м.
Вид битрейта : Постоянный
Битрейт : 128 Кбит/сек
Каналы : 2 канала
Частота : 48,0 КГц
Метод сжатия : С потерями
Размер потока : 53,6 Мбайт (8%)
Выравнивание : Соединение по промежуткам
Продолжительность промежутка : 42 мс. (1,00 видеокадр)
Время предзагрузки промежутка : 504 мс.

Аудио #2
Идентификатор : 2
Формат : MPEG Audio
Версия формата : Version 1
Профиль формата : Layer 3
Режим : Joint stereo
Расширение режима : MS Stereo
Идентификатор кодека : 55
Идентификатор кодека/Подсказка : MP3
Продолжительность : 58 м.
Вид битрейта : Переменный
Битрейт : 128 Кбит/сек
Каналы : 2 канала
Частота : 48,0 КГц
Метод сжатия : С потерями
Размер потока : 53,7 Мбайт (8%)
Выравнивание : Соединение по промежуткам
Продолжительность промежутка : 24 мс. (0,58 видеокадр)
Время предзагрузки промежутка : 143 мс.
Библиотека кодирования : LAME3.90.
Настройки программы : -m j -V 4 -q 2 -lowpass 17.6 --abr 128

Внимание! Раздача ведётся путём добавления новых серий; при каждом добавлении создётся новый торрент. Чтобы начать докачку новой серии, пользователям необходимо сделать следующее:
(1) остановить скачивание,
(2) удалить старый торрент у себя из клиента (старые серии удалять не надо),
(3) скачать новый торрент и запустить его у себя в клиенте вместо старого, при этом указать клиенту путь в старую папку куда и должно происходить скачивание новых серий.

Ваш клиент при этом должен произвести хеширование (проверку) старой папки (если не производит сам - помогите ему сделать это), и будет докачивать только те серии которых у вас ещё нет. Старые серии при этом не удаляются, а продолжают раздаваться!

Eсли вы уже удалили старые серии, то предотвратить повторную закачку старых серий можно, отжав галочку в соответсвующих местах при запуске нового торрента. По возможности, желательно не удалять старые серии как можно дольше чтобы релизёр не столько продолжал раздавать старые серии, а смог сконцентрироваться на новых.
Добавлены 7 и 8 серии!
Сезон окончен.
pb.wtf



Скачать Босс через торрент http://pic.kartinco.top/images/2011/qohuijeybp.jpg Скачать фильм Босс через торрент бесплантно в хорошем качестве Описание: Сюжет рассказывает о мэре Чикаго, страдающем тяжелым психическим заболеванием и, в результате, нарушениями памяти и рассудка, но ... 10 10 1
Info! Золотая раздача, скачанное не засчитывается.
Торрент: Зарегистрирован [2012-01-18 16:09] · скачан: 20 раз
Статус: √ проверено
Размер: 5.47 GB
Как cкачать? Как скачать Босс через торрент | qTorrent

% Раздел Тема Автор DL S | L
Зарубежные сериалы [ 10.28 GB ] Босс / Boss / Сезон: 1 / Серии: 1-8 из 8 [2011 BDRip-HEVC 1080p] MVO [NewStudio] bober100 Скачать
1 | 0
Зарубежные сериалы [ 14.18 GB ] Босс / Boss / Сезон: 1 / Серии: 1-8 [2011 HDTV 720p] Messa-fan Скачать
1 | 0


Последний раз редактировалось: Messa-fan (2012-01-18 16:09), всего редактировалось 1 раз

28-11-2019 20:33  

Отключить всю рекламу на сайте

27-12-2011 16:07 Босс Скачать торрент  

Добавлена 6 серия!pb.wtf



16-01-2012 20:25 Босс Скачать торрент  

Келси Грэммер получил вчера награду "Золотой глобус" как лучший актер в драме за роль в "Босс".
Две заключительные серии будут озвучены на этой неделеpb.wtf



18-01-2012 16:10 Босс Скачать торрент  

Добавлены 7 и 8 серии!
Сезон окончен.
pb.wtf



27-04-2012 07:38 Босс Скачать торрент  

как скачать нет не одного сидаpb.wtf



    Дорогой пользователь! Огромная просьба, поблагодарите релизера, оцените раздачу и оставьте свои комментарий, если Вы скачали Босс через торрент бесплатно! Внесите свою лепту в развитие PiratBit!
    Комментировать посты могут только пользователи прошедшие не сложную регистрацию
    Показать сообщения:    

    Босс через торрент
    Скачать бесплатно Босс
    Босс скачать торрент
    Босс смотреть онлайн
    Cкачать фильм Босс бесплатно
    Босс скачать торрент в хорошем качестве
    Босс смотреть онлайн бесплатно в хорошем качестве


    Вы не можете начинать темы
    Вы не можете отвечать на сообщения
    Вы не можете редактировать свои сообщения
    Вы не можете удалять свои сообщения
    Вы не можете голосовать в опросах
    Вы не можете прикреплять файлы к сообщениям
    Вы можете скачивать файлы