Ссылка на приватное зеркало нашего сайта всего за 1$. Внимание количество ограничено!!!

2 сезон

iTunes

1 сезон

1

iTunes

iTunes

iTunes

1 сезон

RePack

30

ИГРА 18+

pack

ВАЖНО

!!Акция!!

Alien_RageХит недели

RePack

MK11
pack

Забери бонус

RePack

jed

!!Акция!!

Alien_Rage

RePack

fifa19

RePack

Assassins Creed: Odyssey

RePack

NEED FOR SPEED™ PAYBACK

4 сезон

9 сезон

Бесстыжие 9 сезон

Все сериалы

все сериалы на PB.wtf

RePack

FAR CRY 5
  

Братья / Brothers (Джим Шеридан / Jim Sheridan) [720p / DVD9] pb.wtf

Братья через торрент pb.wtf

Размер: 6.57 GB | Добавлен: 9 лет 9 мес. назад | Торрент скачан:22 раза
Скачать  

03-01-2011 15:37 Братья Скачать торрент  

БратьяBrothers
«Если бы ты знала, через что я прошел, чтобы вернуться к тебе.»
Год выпуска: 2009
Страна:
Жанр: триллер, драма, военный
Продолжительность: 1:44:37
Перевод: Профессиональный (многоголосый, закадровый)

Режиссер: Джим Шеридан / Jim Sheridan
Продюссер: Мэтт Бэттеглия, Такер Тули, Майкл Де Лука
Сценарий: Дэвид Бениофф, Сюзанн Биер, Андерс Томас Йенсен

Бюджет: $26 000 000
Премьера в мире: 3 декабря 2009




В ролях: Джейк Джилленхол, Натали Портман, Тоби Магуайр, Клифтон Коллинз мл., Бэйли Мэдисон, Сэм Шепард, Мэр Уиннингэм, Тейлор Джир, Патрик Флюгер, Кэри Маллиган Два брата… Они так не похожи друг на друга. Старший, Сэм — бравый офицер, любящий муж и отец. А младший, Томми, мечется по жизни, словно ходит по лезвию бритвы. Уезжая добровольцем на войну в Афганистан, Сэм просит Томми позаботиться о детях и жене Грейс. Проходит время, от Сэма нет вестей. Его считают без вести пропавшим. Томми, как может, утешает Грейс. Незаметно между ними вспыхивает чувство. Но однажды Сэм возвращается…

Качество: BDRip
Формат: MKV
Видео кодек: H.26x
Аудио кодек: AC3
Видео: x264 (L4.1), 1280x534, ~4.4 Mbps, 23.976 fps
Аудио:
48 kHz, DTS, 3/2 (L,C,R,l,r) + LFE ch, ~1536.00 kbps avg |Многоголосый, закадровый, R5|
48 kHz, DTS, 3/2 (L,C,R,l,r) + LFE ch, ~1536.00 kbps avg |Немахов|
48 kHz, DTS, 3/2 (L,C,R,l,r) + LFE ch, ~1536.00 kbps avg
48 kHz, Vorbis, 2/0 (L,R), ~64.00 kbps avg |Commentary|
Субтитры:
H:\Фильмы\Братья [720p]\Братья [720p].mkv
General
Complete name : H:\Фильмы\Братья [720p]\Братья [720p].mkv
Format : Matroska
File size : 6.57 GiB
Duration : 1h 44mn
Overall bit rate : 8 992 Kbps
Encoded date : UTC 2010-08-28 15:21:09
Writing application : mkvmerge v3.3.0 ('Language') built on Mar 24 2010 14:59:24
Writing library : libebml v0.8.0 + libmatroska v0.9.0
Video #1
ID : 1
Format : AVC
Format/Info : Advanced Video Codec
Format profile : High@L4.1
Format settings, CABAC : Yes
Format settings, ReFrames : 8 frames
Muxing mode : Container profile=Unknown@4.1
Codec ID : V_MPEG4/ISO/AVC
Duration : 1h 44mn
Bit rate : 4 220 Kbps
Nominal bit rate : 4 410 Kbps
Width : 1 280 pixels
Height : 534 pixels
Display aspect ratio : 2.35:1
Frame rate : 23.976 fps
Resolution : 8 bits
Colorimetry : 4:2:0
Scan type : Progressive
Bits/(Pixel*Frame) : 0.257
Stream size : 3.09 GiB (47%)
Title : x264
Writing library : x264 core 88 r1471 1144615
Encoding settings : cabac=1 / ref=8 / deblock=1:-3:-3 / analyse=0x3:0x113 / me=umh / subme=10 / psy=1 / psy_rd=1.00:0.00 / mixed_ref=1 / me_range=64 / chroma_me=1 / trellis=2 / 8x8dct=1 / cqm=0 / deadzone=21,11 / fast_pskip=0 / chroma_qp_offset=-2 / threads=6 / sliced_threads=0 / nr=0 / decimate=0 / mbaff=0 / constrained_intra=0 / bframes=6 / b_pyramid=2 / b_adapt=2 / b_bias=0 / direct=3 / wpredb=1 / wpredp=2 / keyint=250 / keyint_min=25 / scenecut=40 / intra_refresh=0 / rc=2pass / mbtree=0 / bitrate=4410 / ratetol=1.0 / qcomp=0.60 / qpmin=10 / qpmax=51 / qpstep=4 / cplxblur=20.0 / qblur=0.5 / ip_ratio=1.40 / pb_ratio=1.30 / aq=1:0.80
Language : English
Audio #2
ID : 2
Format : DTS
Format/Info : Digital Theater Systems
Codec ID : A_DTS
Duration : 1h 44mn
Bit rate mode : Constant
Bit rate : 1 510 Kbps
Channel(s) : 6 channels
Channel positions : Front: L C R, Side: L R, LFE
Sampling rate : 48.0 KHz
Resolution : 24 bits
Stream size : 1.10 GiB (17%)
Title : MVO DTS 5.1 1536kbps
Language : Russian
Audio #3
ID : 3
Format : DTS
Format/Info : Digital Theater Systems
Codec ID : A_DTS
Duration : 1h 44mn
Bit rate mode : Constant
Bit rate : 1 510 Kbps
Channel(s) : 6 channels
Channel positions : Front: L C R, Side: L R, LFE
Sampling rate : 48.0 KHz
Resolution : 24 bits
Stream size : 1.10 GiB (17%)
Title : AVO DTS 5.1 1536kbps |Немахов|
Language : Russian
Audio #4
ID : 4
Format : DTS
Format/Info : Digital Theater Systems
Codec ID : A_DTS
Duration : 1h 44mn
Bit rate mode : Constant
Bit rate : 1 510 Kbps
Channel(s) : 6 channels
Channel positions : Front: L C R, Side: L R, LFE
Sampling rate : 48.0 KHz
Resolution : 24 bits
Stream size : 1.10 GiB (17%)
Title : DTS 5.1
Language : English
Audio #5
ID : 5
Format : Vorbis
Format settings, Floor : 1
Codec ID : A_VORBIS
Duration : 1h 44mn
Bit rate mode : Constant
Bit rate : 64.0 Kbps
Channel(s) : 2 channels
Sampling rate : 48.0 KHz
Stream size : 47.9 MiB (1%)
Title : Commentary
Writing library : libVorbis 20090709 (UTC 2009-07-09)
Language : English
Text #6
ID : 6
Format : UTF-8
Codec ID : S_TEXT/UTF8
Codec ID/Info : UTF-8 Plain Text
Language : Russian
Text #7
ID : 7
Format : UTF-8
Codec ID : S_TEXT/UTF8
Codec ID/Info : UTF-8 Plain Text
Language : English
скриншот  
скриншот  
скриншот  
скриншот  
pb.wtf



Скачать Братья через торрент http://linkme.ufanet.ru/box/400x500/f032e3effb08a8c1e073602fdc1519b0.jpg Скачать фильм Братья через торрент бесплантно в хорошем качестве В ролях: Джейк Джилленхол, Натали Портман, Тоби Магуайр, Клифтон Коллинз мл., Бэйли Мэдисон, Сэм Шепард, Мэр Уиннингэм, Тейлор Джир, Патрик ... 10 10 1
Info! Золотая раздача, скачанное не засчитывается.
Торрент: Зарегистрирован [2011-01-03 15:37] · скачан: 22 раз
Статус: √ проверено
Размер: 6.57 GB
Как cкачать? Как скачать Братья через торрент | qTorrent

% Раздел Тема Автор DL S | L
Ultra HD (UHD: 2K, 4K, 8K) — видео сверхвысокой чёткости [ 47.4 GB ] Братья Блюз / The Blues Brothers [1980 Мюзикл UHD BDRemux 2160p] [Расширенная версия] MVO+4xAVO bober100 Скачать
1 | 0
Зарубежные сериалы [ 10.48 GB ] Братья по оружию / Band of Brothers / Сезон: 1 / Серии: 1-10 из 10 [2001 военный история BDRip] [MVO] killermax2013 Скачать
3 | 0
Зарубежные сериалы [ 50.94 GB ] Братья по оружию / Band of Brothers / Серии: 1-10 из 10 [2001 военный история BDRip 720p] 2xMVO+2xDVO+AVO bober100 Скачать
1 | 0
T Фильмы (мультфильмы) cо спонсором показа (Новинки AVI/MKV) [ 1.23 GB ] Неизвестный случай с братьями Баш / The Unauthorized Bash Brothers Experience [2019 короткометражка музыка WEB-DL 720p] MVO ["Синема УС"] bober100 Скачать
1 | 0
T Фильмы (мультфильмы) cо спонсором показа (Новинки AVI/MKV) [ 500 MB ] Неизвестный случай с братьями Баш / The Unauthorized Bash Brothers Experience [2019 короткометражка музыка WEB-DLRip] MVO ["Синема УС"] bober100 Скачать
1 | 0
Фильмы (HD 720p, 1080p) (48-60 fps) [ 11.41 GB ] Братья Систерс / The Sisters Brothers [2018 BDRip 720p 60 fps] sheker187 Скачать
1 | 0
Фильмы 2018 [DVDrip, WEB-DLRip, HDrip] (DUB, MVO) [ 2.13 GB ] Братья Систерс / The Sisters Brothers [2018 BDRip] - Twi7ter Скачать
2 | 0


Последний раз редактировалось: Timberwolf (2011-01-04 14:53), всего редактировалось 2 раз(а)

28-11-2019 20:33  

Отключить всю рекламу на сайте

03-01-2011 16:24 Братья Скачать торрент  

скорости дайте...pb.wtf



03-01-2011 17:02 Братья Скачать торрент  

макс 1мбит pb.wtf



03-01-2011 17:59 Братья Скачать торрент  

да хотя бы 1 Мбит..pb.wtf



03-01-2011 19:59 Братья Скачать торрент  

вот так идет pb.wtf



04-01-2011 14:50 Братья Скачать торрент  

[sup]сорь.встал на раздачу.просто траблы с нетом утром были[/sup]pb.wtf



    Дорогой пользователь! Огромная просьба, поблагодарите релизера, оцените раздачу и оставьте свои комментарий, если Вы скачали Братья через торрент бесплатно! Внесите свою лепту в развитие PiratBit!
    Комментировать посты могут только пользователи прошедшие не сложную регистрацию
    Показать сообщения:    

    Братья через торрент
    Скачать бесплатно Братья
    Братья скачать торрент
    Братья смотреть онлайн
    Cкачать фильм Братья бесплатно
    Братья скачать торрент в хорошем качестве
    Братья смотреть онлайн бесплатно в хорошем качестве


    Вы не можете начинать темы
    Вы не можете отвечать на сообщения
    Вы не можете редактировать свои сообщения
    Вы не можете удалять свои сообщения
    Вы не можете голосовать в опросах
    Вы не можете прикреплять файлы к сообщениям
    Вы можете скачивать файлы