MEGA SALE -50% FORZA HORIZON 4 ULTIMATE+ВСЕ DLC+ОНЛАЙН всего за 599р. 299 руб. (супер цена). Внимание количество ограничено!!!

iTunes

1+1

iTunes

мы

iTunes

1

iTunes

Чернобыль

iTunes

Ральф против интернета

Лицензия

ПШазам

Лицензия

Игра престолов

Лицензия

30
pack

ВАЖНО

!!Акция!!

Alien_RageХит недели

RePack

Resident Evil 21

ИГРА 18+

pack

RePack

Metro:Exodus

!!Акция!!

Alien_Rage

RePack

fifa19

RePack

Assassins Creed: Odyssey

RePack

NEED FOR SPEED™ PAYBACK

3 сезон

9 сезон

Бесстыжие 9 сезон

Все сериалы

все сериалы на PB.wtf

RePack

FAR CRY 5
Ребята, катастрофически не хватает 7730р. для оплаты серверов за АВГУСТ (всвязи с блокировками трафик упал в 3 раза), 1-2р., выручайте.
  

Мертвеход / The Revenant (Д. Керри Прайор / D. Kerry Prior) [2009, США, ужасы, комедия, DVDRip] pb.wtf

Мертвеход через торрент pb.wtf

Размер: 778 MB | Добавлен: 7 лет 8 мес. назад | Торрент скачан:253 раза
Скачать  

23-12-2011 16:36 Мертвеход Скачать торрент  

Мертвеход / The Revenant Страна: США
Жанр: ужасы, комедия
Год выпуска: 2009
Продолжительность: 01:57:12
Перевод: Любительский (многоголосый закадровый) ViruseProject
Режиссер: Д. Керри Прайор / D. Kerry Prior
Сценарий:Д. Керри Прайор
Продюсер:Лайам Финн, Д. Керри Прайор, Жак Телемак, ...
Оператор:Питер Хоукинс
В ролях: D.N.A., Дэвид Андерс, Сьюзан Эверитт, Бернардо Бадилло, Брук Бикфорд, Эми Корреа, Брэкстон Дэвис, Дон Данн, Марк Елиас, Стэйси Мишель Голд и др.
Описание: Два кореша, один уезжает воевать и погибает в перестрелке, его хоронят. Все было бы по обычному, если бы он не ожил в гробу после похорон. И что ему остается делать, как не идти к своему обезбашенному другу за помощью. Выясняется, что зомбо-корешу, чтобы не разлагаться нужно пить человеческую кровь, ну, а его дружбан берется помогать ему... Вот тут то и начинается заварушка.


Релиз: совместно с
Озвучка:
*viruse (Виталий Емельянов) - Джоуи, Мисис Агматик и другие
* _Lost_Girl_ (Полина Касаткина) - все женские
*europamusic (Сергей Калугин) - Барт и другие
Перевод: Vesel1509 (Артем Веселовский)
Сведение звука, подготовка видео, постер: viruse

[Смотреть трейлер на youtube[/url]
скачать СЕМПЛ с multi-up
[]Смотреть семпл озвучки на youtube[/url]
Качество видео: DVDRip
Формат видео: AVI
Видео кодек: XviD
Аудио кодек: мр3
Видео: 640x272 (2.35:1), 23.976 fps, XviD MPEG-4 ~790 kbps avg, 0.19 bit/pixel
Аудио: 48 kHz, MPEG Layer 3, 2 ch, ~128.00 kbps avg
D:\PROGI\Transl\ОЗВУЧКА\ПОСТЕР\The.Revenant.ViruseProject.avi
General
Complete name : D:\PROGI\Transl\ОЗВУЧКА\ПОСТЕР\The.Revenant.ViruseProject.avi
Format : AVI
Format/Info : Audio Video Interleave
File size : 778 MiB
Duration : 1h 57mn
Overall bit rate : 928 Kbps
Writing application : VirtualDubMod 1.5.10.2 (build 2540/release)
Writing library : VirtualDubMod build 2540/release
Video #0
ID : 0
Format : MPEG-4 Visual
Format profile : Advanced Simple@L5
Format settings, BVOP : 2
Format settings, QPel : No
Format settings, GMC : No warppoints
Format settings, Matrix : Default (H.263)
Muxing mode : Packed bitstream
Codec ID : XVID
Codec ID/Hint : XviD
Duration : 1h 57mn
Bit rate : 790 Kbps
Width : 640 pixels
Height : 272 pixels
Display aspect ratio : 2.35:1
Frame rate : 23.976 fps
Color space : YUV
Chroma subsampling : 4:2:0
Bit depth : 8 bits
Scan type : Progressive
Compression mode : Lossy
Bits/(Pixel*Frame) : 0.189
Stream size : 663 MiB (85%)
Writing library : XviD 64
Audio #1
ID : 1
Format : MPEG Audio
Format version : Version 1
Format profile : Layer 3
Mode : Joint stereo
Mode extension : MS Stereo
Codec ID : 55
Codec ID/Hint : MP3
Duration : 1h 57mn
Bit rate mode : Constant
Bit rate : 128 Kbps
Channel(s) : 2 channels
Sampling rate : 48.0 KHz
Compression mode : Lossy
Stream size : 107 MiB (14%)
Alignment : Aligned on interleaves
Interleave, duration : 42 ms (1.00 video frame)
Interleave, preload duration : 504 ms
pb.wtf



Скачать Мертвеход через торрент http://i30.fastpic.ru/big/2011/1223/28/eeb352e14d14693ca917172341bf5228.png Скачать фильм Мертвеход через торрент бесплантно в хорошем качестве Описание: Два кореша, один уезжает воевать и погибает в перестрелке, его хоронят. Все было бы по обычному, если бы он не ожил в гробу после ... 10 10 1
Info! Золотая раздача, скачанное не засчитывается.
Торрент: Зарегистрирован [2011-12-23 16:36] · скачан: 253 раз
Статус: √ проверено
Размер: 778 MB
Как cкачать? Как скачать Мертвеход через торрент | qTorrent

% Раздел Тема Автор DL S | L
Фильмы [HD 720p, 1080p] (Звук Cam, VO, DVO) [ 6.25 GB ] Мертвеход / The Revenant [2009 BDRip 720p] MVO + original + sub Ворон Скачать
1 | 0
Фильмы 2009 [ 1.45 GB ] Мертвеход / The Revenant [2009 HDRip] MVO Ворон Скачать
1 | 0
Фильмы 2009 [ 2.18 GB ] Мертвеход / The Revenant [2009 HDRip] MVO Ворон Скачать
1 | 0
Фильмы 2009 [ 1.4 GB ] Мертвеход / The Revenant [2009 HDRip] MVO stalonе Скачать
1 | 0


>> Регистрируемся здесь <<






Отзывы и комментарии о схеме читаем и пишем здесь: ---> Отзывы и комментарии о схеме

Новые благодарочки в телеграм довольных пользователей:
скриншот   скриншот   скриншот   скриншот   скриншот

23-12-2011 18:25 Мертвеход Скачать торрент  

вот те раз! Сюжет!pb.wtf



24-12-2011 16:59 Мертвеход Скачать торрент  

Переводик супееер!pb.wtf



24-12-2011 23:08 Мертвеход Скачать торрент  

картавящее чучело убило весь перевод!!!!))) pb.wtf



06-01-2012 09:16 Мертвеход Скачать торрент  

Классный фильм. Лучший про зомби. pb.wtf



    Дорогой пользователь! Огромная просьба, поблагодарите релизера, оцените раздачу и оставьте свои комментарий, если Вы скачали Мертвеход через торрент бесплатно! Внесите свою лепту в развитие PiratBit!
    Комментировать посты могут только пользователи прошедшие не сложную регистрацию
    Показать сообщения:    

    Мертвеход через торрент
    Скачать бесплатно Мертвеход
    Мертвеход скачать торрент
    Мертвеход смотреть онлайн
    Cкачать фильм Мертвеход бесплатно
    Мертвеход скачать торрент в хорошем качестве
    Мертвеход смотреть онлайн бесплатно в хорошем качестве


    Вы не можете начинать темы
    Вы не можете отвечать на сообщения
    Вы не можете редактировать свои сообщения
    Вы не можете удалять свои сообщения
    Вы не можете голосовать в опросах
    Вы не можете прикреплять файлы к сообщениям
    Вы можете скачивать файлы