Ссылка на приватное зеркало всего за 1$. Внимание количество ограничено!!!

iTunes

1+1

iTunes

мы

WEB-DL

1

iTunes

Чернобыль

iTunes

Ральф против интернета

Лицензия

ПШазам

Лицензия

Оно 2

Лицензия

30
pack

Вам бонус

ВАЖНО

!!Акция!!

Alien_RageХит недели

RePack

Resident Evil 21

ИГРА 18+

pack

RePack

jed

!!Акция!!

Alien_Rage

RePack

fifa19

RePack

Assassins Creed: Odyssey

RePack

NEED FOR SPEED™ PAYBACK

3 сезон

9 сезон

Бесстыжие 9 сезон

Все сериалы

все сериалы на PB.wtf

RePack

FAR CRY 5
Ребята, катастрофически не хватает 1900р. для оплаты серверов за Октябрь (всвязи с блокировками трафик упал в 3 раза), 1-2р., выручайте.
  

Бриллиантова​я Рука (Леонид Гайдай) [1968 г., Комедия, HDRip] pb.wtf

Бриллиантова​я Рука через торрент pb.wtf

Размер: 1.52 GB | Добавлен: 7 лет 11 мес. назад | Торрент скачан:137 раз
Скачать  

25-12-2011 09:01 Бриллиантова​я Рука Скачать торрент  

Бриллиантова​я Рука

Страна: СССР
Год выпуска: 1968
Жанр: Комедия
Продолжительность: 01:38:21
Перевод: Не требуется

Режиссёр: Леонид Гайдай

В ролях: Юрий Никулин, Анатолий Папанов, Андрей Миронов, Леонид Каневский, Светлана Светличная, Нонна Мордюкова, Нина Гребешкова, Владимир Гуляев, Станислав Чекан, Григорий Шпигель, Андрей Файт, Евгения Мельникова, Максим Никулин, Георгий Светлани, Лев Поляков, Татьяна Никулина

Описание: Скромный служащий Семен Горбунков, отправляется в заграничную турпоездку и там, случайно споткнувшись, ломает руку. Но оказывается, произнесенные им при этом слова "Черт побери!" служат паролем для контрабандистов, и в гипс Семен Семеновича закатывают золото и бриллианты. А настоящий контрабандист, тем временем, оказывается соседом Горбункова... Контрабандисты во чтобы то не стало пытаются заполучить ценности из гипса. Но Семен Семеныч ставит в известность милицию, которая начинает "ловлю на живца" - на самого Горбункова, и Семен Семеныч вступает в героический поединок с шайкой контрабандистов...


Качество: HDRip
Формат: MKV
Видео кодек: H.264
Аудио кодек: AC-3
Видео: H.264, 720x304 pix, 1832 Kbps, 23.976 fps, High L4.1
Аудио: AC-3, 48.0 KHz, 384 Kbps, 5.1 channels, 16 bits
General
Unique ID : 174076116642242493355380793450776939804 (0x82F5D72F3A6670D48F721E2C1A26CD1C)
Complete name : E:Brilliantovaya.ruka.1968.HDRip.mkv
Format : Matroska
Format version : Version 2
File size : 1.52 GiB
Duration : 1h 38mn
Overall bit rate : 2 217 Kbps
Encoded date : UTC 2011-12-25 08:13:04
Writing application : mkvmerge v4.9.1 ('Ich will') сборка от Jul 11 2011 23:53:15
Writing library : libebml v1.2.1 + libmatroska v1.1.1

Video
ID : 1
Format : AVC
Format/Info : Advanced Video Codec
Format profile : High L4.1
Format settings, CABAC : Yes
Format settings, ReFrames : 4 frames
Codec ID : V_MPEG4/ISO/AVC
Duration : 1h 38mn
Bit rate : 1 832 Kbps
Width : 720 pixels
Height : 304 pixels
Display aspect ratio : 2.35:1
Frame rate : 23.976 fps
Color space : YUV
Chroma subsampling : 4:2:0
Bit depth : 8 bits
Scan type : Progressive
Bits/(Pixel*Frame) : 0.349
Stream size : 1.23 GiB (81%)
Title : freeisland.hd
Writing library : x264 core 116 r2074 2641b9e
Encoding settings : cabac=1 / ref=2 / deblock=1:-1:-1 / analyse=0x3:0x133 / me=hex / subme=8 / psy=1 / psy_rd=1.00:0.15 / mixed_ref=1 / me_range=16 / chroma_me=1 / trellis=1 / 8x8dct=1 / cqm=0 / deadzone=21,11 / fast_pskip=1 / chroma_qp_offset=-3 / threads=4 / sliced_threads=0 / nr=0 / decimate=1 / interlaced=0 / bluray_compat=0 / constrained_intra=0 / bframes=8 / b_pyramid=2 / b_adapt=2 / b_bias=0 / direct=3 / weightb=1 / open_gop=0 / weightp=2 / keyint=240 / keyint_min=25 / scenecut=40 / intra_refresh=0 / rc_lookahead=50 / rc=2pass / mbtree=0 / bitrate=1832 / ratetol=1.0 / qcomp=1.00 / qpmin=0 / qpmax=69 / qpstep=4 / cplxblur=20.0 / qblur=0.5 / vbv_maxrate=50000 / vbv_bufsize=50000 / nal_hrd=none / ip_ratio=1.40 / pb_ratio=1.30 / aq=1:1.00
Language : English
Default : Yes
Forced : No
Color primaries : BT.709-5, BT.1361, IEC 61966-2-4, SMPTE RP177
Transfer characteristics : BT.709-5, BT.1361
Matrix coefficients : BT.709-5, BT.1361, IEC 61966-2-4 709, SMPTE RP177

Audio
ID : 2
Format : AC-3
Format/Info : Audio Coding 3
Mode extension : CM (complete main)
Codec ID : A_AC3
Duration : 1h 38mn
Bit rate mode : Constant
Bit rate : 384 Kbps
Channel(s) : 6 channels
Channel positions : Front: L C R, Side: L R, LFE
Sampling rate : 48.0 KHz
Bit depth : 16 bits
Compression mode : Lossy
Stream size : 270 MiB (17%)
Language : Russian
Default : Yes
Forced : No






Релиз: pb.wtf



Скачать Бриллиантова​я Рука через торрент http://s017.radikal.ru/i439/1112/11/75cac6feece4.jpg Скачать фильм Бриллиантова​я Рука через торрент бесплантно в хорошем качестве Описание: Скромный служащий Семен Горбунков, отправляется в заграничную турпоездку и там, случайно споткнувшись, ломает руку. Но ... 10 10 1
Info! Золотая раздача, скачанное не засчитывается.
Торрент: Зарегистрирован [2011-12-25 09:01] · скачан: 137 раз
Статус: √ проверено
Размер: 1.52 GB
Как cкачать? Как скачать Бриллиантова​я Рука через торрент | qTorrent

28-11-2019 20:33  

Отключить всю рекламу на сайте


    Дорогой пользователь! Огромная просьба, поблагодарите релизера, оцените раздачу и оставьте свои комментарий, если Вы скачали Бриллиантова​я Рука через торрент бесплатно! Внесите свою лепту в развитие PiratBit!
    Комментировать посты могут только пользователи прошедшие не сложную регистрацию
    Показать сообщения:    

    Бриллиантова​я Рука через торрент
    Скачать бесплатно Бриллиантова​я Рука
    Бриллиантова​я Рука скачать торрент
    Бриллиантова​я Рука смотреть онлайн
    Cкачать фильм Бриллиантова​я Рука бесплатно
    Бриллиантова​я Рука скачать торрент в хорошем качестве
    Бриллиантова​я Рука смотреть онлайн бесплатно в хорошем качестве


    Вы не можете начинать темы
    Вы не можете отвечать на сообщения
    Вы не можете редактировать свои сообщения
    Вы не можете удалять свои сообщения
    Вы не можете голосовать в опросах
    Вы не можете прикреплять файлы к сообщениям
    Вы можете скачивать файлы