новый адрес
Мега распродажа FORZA HORIZON 4 ULTIMATE+ВСЕ DLC+ОНЛАЙН всего за 499р. 349 руб. (супер цена). Внимание количество ограничено!!!

iTunes

1+1

iTunes

мы

iTunes

1

iTunes

Чернобыль

iTunes

Ральф против интернета

Лицензия

ПШазам

Лицензия

Игра престолов

Лицензия

30
pack

ВАЖНО

!!Акция!!

Alien_RageХит недели

RePack

Resident Evil 21

ИГРА 18+

pack

RePack

Metro:Exodus

!!Акция!!

Alien_Rage

RePack

fifa19

RePack

Assassins Creed: Odyssey

RePack

NEED FOR SPEED™ PAYBACK

3 сезон

9 сезон

Бесстыжие 9 сезон

Все сериалы

все сериалы на PB.wtf

RePack

FAR CRY 5
Ребята, катастрофически не хватает 1900р. для оплаты серверов за Октябрь (всвязи с блокировками трафик упал в 3 раза), 1-2р., выручайте.
  

Бриллиантовая Рука (Леонид Гайдай) [1968 г., Комедия, BDRip 720p] pb.wtf

Бриллиантовая Рука через торрент pb.wtf

Размер: 6.01 GB | Добавлен: 7 лет 10 мес. назад | Торрент скачан:151 раз
Скачать  

25-12-2011 09:09 Бриллиантовая Рука Скачать торрент  

Бриллиантовая Рука

Страна: СССР
Год выпуска: 1968
Жанр: Комедия
Продолжительность: 01:38:21
Перевод: Не требуется

Режиссёр: Леонид Гайдай

В ролях: Юрий Никулин, Анатолий Папанов, Андрей Миронов, Леонид Каневский, Светлана Светличная, Нонна Мордюкова, Нина Гребешкова, Владимир Гуляев, Станислав Чекан, Григорий Шпигель, Андрей Файт, Евгения Мельникова, Максим Никулин, Георгий Светлани, Лев Поляков, Татьяна Никулина

Описание: Скромный служащий Семен Горбунков, отправляется в заграничную турпоездку и там, случайно споткнувшись, ломает руку. Но оказывается, произнесенные им при этом слова "Черт побери!" служат паролем для контрабандистов, и в гипс Семен Семеновича закатывают золото и бриллианты. А настоящий контрабандист, тем временем, оказывается соседом Горбункова... Контрабандисты во чтобы то не стало пытаются заполучить ценности из гипса. Но Семен Семеныч ставит в известность милицию, которая начинает "ловлю на живца" - на самого Горбункова, и Семен Семеныч вступает в героический поединок с шайкой контрабандистов...


Качество: BDRip 720p
Исходник: Blu-Ray
Формат: MKV
Видео кодек: H.264
Аудио кодек: DTS
Видео: H.264, 1280x544 pix, 7233 Kbps, 23.976 fps, High L4.1
Аудио: DTS, 48.0 KHz, 1510 Kbps, 5.1 channel, 16 bits
General
Unique ID : 187924201318030051810054950726144720747 (0x8D60E27908EA96C88C1ED1753A497F6B)
Complete name : E:Brilliantovaya ruka [BDRip 720p] (1968).mkv
Format : Matroska
Format version : Version 2
File size : 6.01 GiB
Duration : 1h 38mn
Overall bit rate : 8 742 Kbps
Encoded date : UTC 2011-12-25 05:06:25
Writing application : mkvmerge v4.9.1 ('Ich will') сборка от Jul 11 2011 23:53:15
Writing library : libebml v1.2.1 + libmatroska v1.1.1

Video
ID : 1
Format : AVC
Format/Info : Advanced Video Codec
Format profile : High L4.1
Format settings, CABAC : Yes
Format settings, ReFrames : 5 frames
Codec ID : V_MPEG4/ISO/AVC
Duration : 1h 38mn
Bit rate : 7 233 Kbps
Width : 1 280 pixels
Height : 544 pixels
Display aspect ratio : 2.35:1
Frame rate : 23.976 fps
Color space : YUV
Chroma subsampling : 4:2:0
Bit depth : 8 bits
Scan type : Progressive
Bits/(Pixel*Frame) : 0.433
Stream size : 4.85 GiB (81%)
Title : for freeisland
Writing library : x264 core 116 r2074 2641b9e
Encoding settings : cabac=1 / ref=5 / deblock=1:-1:-1 / analyse=0x3:0x133 / me=hex / subme=8 / psy=1 / psy_rd=1.00:0.15 / mixed_ref=1 / me_range=16 / chroma_me=1 / trellis=1 / 8x8dct=1 / cqm=0 / deadzone=21,11 / fast_pskip=1 / chroma_qp_offset=-3 / threads=4 / sliced_threads=0 / nr=0 / decimate=1 / interlaced=0 / bluray_compat=0 / constrained_intra=0 / bframes=7 / b_pyramid=2 / b_adapt=2 / b_bias=0 / direct=3 / weightb=1 / open_gop=0 / weightp=2 / keyint=240 / keyint_min=25 / scenecut=40 / intra_refresh=0 / rc_lookahead=50 / rc=2pass / mbtree=0 / bitrate=7233 / ratetol=1.0 / qcomp=1.00 / qpmin=0 / qpmax=69 / qpstep=4 / cplxblur=20.0 / qblur=0.5 / vbv_maxrate=50000 / vbv_bufsize=50000 / nal_hrd=none / ip_ratio=1.40 / pb_ratio=1.30 / aq=1:1.00
Language : English
Default : Yes
Forced : No
Color primaries : BT.709-5, BT.1361, IEC 61966-2-4, SMPTE RP177
Transfer characteristics : BT.709-5, BT.1361
Matrix coefficients : BT.709-5, BT.1361, IEC 61966-2-4 709, SMPTE RP177

Audio
ID : 2
Format : DTS
Format/Info : Digital Theater Systems
Codec ID : A_DTS
Duration : 1h 38mn
Bit rate mode : Constant
Bit rate : 1 510 Kbps
Channel(s) : 6 channels
Channel positions : Front: L C R, Side: L R, LFE
Sampling rate : 48.0 KHz
Bit depth : 24 bits
Compression mode : Lossy
Stream size : 1.04 GiB (17%)
Language : Russian
Default : Yes
Forced : No

Menu
00:00:00.000 : en:00:00:00.000
00:04:43.825 : en:00:04:43.825
00:08:27.549 : en:00:08:27.549
00:11:36.988 : en:00:11:36.988
00:15:58.332 : en:00:15:58.332
00:22:14.917 : en:00:22:14.917
00:28:26.705 : en:00:28:26.705
00:34:49.546 : en:00:34:49.546
00:39:05.343 : en:00:39:05.343
00:43:30.566 : en:00:43:30.566
00:49:45.566 : en:00:49:45.566
00:54:14.334 : en:00:54:14.334
00:58:53.572 : en:00:58:53.572
01:04:20.815 : en:01:04:20.815
01:10:20.341 : en:01:10:20.341
01:14:34.679 : en:01:14:34.679
01:22:27.025 : en:01:22:27.025
01:30:11.448 : en:01:30:11.448
01:33:01.451 : en:01:33:01.451
01:36:52.682 : en:01:36:52.682




Релиз: pb.wtf



Скачать Бриллиантовая Рука через торрент http://s017.radikal.ru/i439/1112/11/75cac6feece4.jpg Скачать фильм Бриллиантовая Рука через торрент бесплантно в хорошем качестве Описание: Скромный служащий Семен Горбунков, отправляется в заграничную турпоездку и там, случайно споткнувшись, ломает руку. Но ... 10 10 5
Info! Золотая раздача, скачанное не засчитывается.
Торрент: Зарегистрирован [2011-12-25 09:09] · скачан: 151 раз
Статус: √ проверено
Размер: 6.01 GB
Как cкачать? Как скачать Бриллиантовая Рука через торрент | qTorrent

% Раздел Тема Автор DL S | L
Наши фильмы (HD, WEB-DL 720p, 1080p) [ 12.03 GB ] Бриллиантовая рука [1968 BDRip 1080p] Original Seedtank Скачать
1 | 0
Кино СССР [ 1.45 GB ] Бриллиантовая рука [1968 BDRip] chingisa Скачать
1 | 0
Наши фильмы (HD, WEB-DL 720p, 1080p) [ 7.95 GB ] Бриллиантовая рука [1968 BDRip 1080p] Оригинал Бумер Скачать
1 | 0
Наши фильмы (Blu-ray, BD-Remux, HDDVD) [ 22.83 GB ] Бриллиантовая рука [1968 Blu-ray Оригинал] Бумер Скачать
1 | 0
Кино СССР [ 742 MB ] Бриллиантовая рука [1968 HDRip] markfiter Скачать
1 | 0
Кино СССР [ 1.37 GB ] Бриллиантовая рука [1968 . DVDRip] DrIron Скачать
1 | 0
Кино СССР [ 2.24 GB ] Бриллиантовая Рука [1968 BDRip-AVC] jb_alex Скачать
1 | 0


>> Регистрируемся здесь <<






Отзывы и комментарии о схеме читаем и пишем здесь: ---> Отзывы и комментарии о схеме

Новые благодарочки в телеграм довольных пользователей:
скриншот   скриншот   скриншот   скриншот   скриншот

25-12-2011 12:36 Бриллиантовая Рука Скачать торрент  

Просто СУПЕР!!!!!!!!!!!pb.wtf



25-12-2011 16:16 Бриллиантовая Рука Скачать торрент  

Родители смотрели, я смотрел, дети будут смотреть и внуки 100% будут смотреть. Неумирающая легенда.pb.wtf



26-12-2011 14:21 Бриллиантовая Рука Скачать торрент  

Light-L-N писал(а):

Родители смотрели, я смотрел, дети будут смотреть и внуки 100% будут смотреть. Неумирающая легенда.

Вообще было бы здорово, если бы кто-нибудь сделайте все советские комедии в таком классном качествеpb.wtf



27-03-2015 23:08 Бриллиантовая Рука Скачать торрент  

Леонид Гайдай Гений.таких нет уже.наверно через 100 лет будет Гайдай№2.ну а фильм класика. pb.wtf



    Дорогой пользователь! Огромная просьба, поблагодарите релизера, оцените раздачу и оставьте свои комментарий, если Вы скачали Бриллиантовая Рука через торрент бесплатно! Внесите свою лепту в развитие PiratBit!
    Комментировать посты могут только пользователи прошедшие не сложную регистрацию
    Показать сообщения:    

    Бриллиантовая Рука через торрент
    Скачать бесплатно Бриллиантовая Рука
    Бриллиантовая Рука скачать торрент
    Бриллиантовая Рука смотреть онлайн
    Cкачать фильм Бриллиантовая Рука бесплатно
    Бриллиантовая Рука скачать торрент в хорошем качестве
    Бриллиантовая Рука смотреть онлайн бесплатно в хорошем качестве


    Вы не можете начинать темы
    Вы не можете отвечать на сообщения
    Вы не можете редактировать свои сообщения
    Вы не можете удалять свои сообщения
    Вы не можете голосовать в опросах
    Вы не можете прикреплять файлы к сообщениям
    Вы можете скачивать файлы