Ссылка на приватное зеркало нашего сайта всего за 1$. Внимание количество ограничено!!!

2 сезон

iTunes

1 сезон

1

2 сезон

2 сезон

iTunes

1 сезон

RePack

30

Новинка

ВАЖНО

ИГРА 18+

pack

RePack

MK11
pack

Забери бонус

RePack

jed

!!Акция!!

Alien_Rage

RePack

fifa19

RePack

Assassins Creed: Odyssey

RePack

NEED FOR SPEED™ PAYBACK

4 сезон

9 сезон

Бесстыжие 9 сезон

Все сериалы

все сериалы на PB.wtf

RePack

FAR CRY 5
  

Семейные ценности(Американская семейка) / Modern Family 1 сезон - 24 серии, 2 сезон - 24 серии, 3 сезон - 17 серий из 24 (Джейсон Уайнер, Рэндолл Эйнхорн) [2009-2011 гг., комедия., HDTVRip][Кубик в кубе] pb.wtf

Семейные ценности через торрент pb.wtf

Размер: 13.26 GB | Добавлен: 8 лет 8 мес. назад | Торрент скачан:5 раз
Скачать  

26-12-2011 17:51 Семейные ценности Скачать торрент  

Семейные ценности (Американская семейка) / Modern Family;
1 сезон - 24 серии, 2 сезон - 24 серии , 3 сезон - 17 серий из 24


Описание:
Джей Притчетт познакомился со сногсшибательной колумбийкой Глорией, когда она в бикини подавала ему коктейли на вечеринке, которую он устроил в день ухода егo первой жены. Теперь Джей и Глория женаты, и Джей изо всех сил старается не отставать от молодой красотки-жены и ее сына-подростка.
В семье Клэр Дельгадо тоже не все гладко. Ее муж Фил — просто замечательный, но он считает, что «свой в доску» для своих детей, чем их сильно смущает. Митчелл Данфи и его партнер Камерон только что удочерили Лили, очаровательного младенца из Вьетнама.

1 сезон - 24 серии
2 сезон - 24 серии
3 сезон - 17 серий
Год выпуска: 2009
Страна: США
Жанр: комедия
Продолжительность: 24 серии x 22 минуты
Перевод: Профессиональный (двухголосый) [Кубик в кубе]

Автор идеи: Джейсон Уайнер, Рэндолл Эйнхорн
В ролях: Эд О’Нил, Джули Боуэн, Ти Баррелл, София Вергара, Джесси Тайлер Фергюсон, Эрик Стоунстрит, Сара Хайланд, Нолан Гоулд
Описание: В первом сезоне вы познакомитесь с удивительными на первый взгляд семьями: Клэр - мать-домохозяйка в обычной традиционной семье. Её отец Джей женат на женщине почти в два раза моложе его, а брат Митчелл вместе своим партнером только что удочерили вьетнамского ребенка.
Качество: HDTVRip
Формат: AVI
Видео кодек: XviD
Аудио кодек: MPEG Layer 3
Видео: 624x352 (1.77:1), 23.976 fps, XviD MPEG-4 ~931 kbps avg, 0.18 bit/pixel
Аудио (Rus): 48 kHz, MPEG Layer 3, 2 ch, ~128.00 kbps avg
Аудио (Eng): 48 kHz, MPEG Layer 3, 2 ch, ~122.72 kbps avg
1x01 - Pilot (Пилотная серия)
1x02 - The Bicycle Thief (Вор педальный)
1x03 - Come Fly with Me (Полетели со мной)
1x04 - The Incident (Инцидент)
1x05 - Coal Digger (Бесприданница)
1x06 - Run for Your Wife (Бегом за женой)
1x07 - En Garde (К бою!)
1x08 - Great Expectations (Большие надежды)
1x09 - Fizbo (Клоун)
1x10 - Undeck the Halls (Снимай гирлянды)
1x11 - Up All Night (Ночь напролёт)
1x12 - Not in My House (Не в моем доме)
1x13 - Fifteen Percent (15 процентов)
1x14 - Moon Landing (Прилунение)
1x15 - My Funky Valentine (Мой cтранный Валентин)
1x16 - Fears (Страхи)
1x17 - Truth Be Told (По правде говоря)
1x18 - Starry Night (Звездная ночь)
1x19 - Game Changer (Переигровка)
1x20 - Benched (Не у дел)
1x21 - Travels with Scout (Странствия со Скаутом)
1x22 - Airport 2010 (Аэропорт 2010)
1x23 - Hawaii (Гавайи)
1x24 - Family Portrait (Семейный портрет)
Общее
Полное имя : \Семейные ценности\1 season\Modern.Family.s01e01.HDTVRip.RUS.[Kubik.v.Kube].avi
Формат : AVI
Формат/Информация : Audio Video Interleave
Размер файла : 195 Мбайт
Продолжительность : 22 м.
Режим общего битрейта : Переменный
Общий поток : 1201 Кбит/сек
Программа кодирования : VirtualDubMod 1.5.10.2 (build 2540/release)
Библиотека кодирования : VirtualDubMod build 2540/release

Видео
Идентификатор : 0
Формат : MPEG-4 Visual
Профиль формата : Advanced Simple@L5
Параметр BVOP формата : 2
Параметр QPel формата : Нет
Параметр GMC формата : Без точки перехода
Параметр матрицы формата : Default (H.263)
Режим смешивания : Сжатый битовый поток
Идентификатор кодека : XVID
Идентификатор кодека/Подсказка : XviD
Продолжительность : 22 м.
Битрейт : 933 Кбит/сек
Ширина : 624 пикселя
Высота : 352 пикселя
Соотношение сторон : 16:9
Частота кадров : 23,976 кадра/сек
Цветовое пространство : YUV
Субдискретизация насыщенности : 4:2:0
Битовая глубина : 8 бит
Тип развёртки : Прогрессивная
Метод сжатия : С потерями
Бит/(Пиксели*Кадры) : 0.177
Размер потока : 152 Мбайт (78%)
Библиотека кодирования : XviD 1.2.1 (UTC 2008-12-04)

Аудио #1
Идентификатор : 1
Формат : MPEG Audio
Версия формата : Version 1
Профиль формата : Layer 3
Режим : Joint stereo
Расширение режима : MS Stereo
Идентификатор кодека : 55
Идентификатор кодека/Подсказка : MP3
Продолжительность : 22 м.
Вид битрейта : Постоянный
Битрейт : 128 Кбит/сек
Каналы : 2 канала
Частота : 48,0 КГц
Метод сжатия : С потерями
Размер потока : 20,8 Мбайт (11%)
Выравнивание : Разделение по промежуткам
Продолжительность промежутка : 42 мс. (1,00 видеокадр)
Время предзагрузки промежутка : 500 мс.

Аудио #2
Идентификатор : 2
Формат : MPEG Audio
Версия формата : Version 1
Профиль формата : Layer 3
Режим : Joint stereo
Расширение режима : MS Stereo
Идентификатор кодека : 55
Идентификатор кодека/Подсказка : MP3
Продолжительность : 22 м.
Вид битрейта : Переменный
Битрейт : 123 Кбит/сек
Каналы : 2 канала
Частота : 48,0 КГц
Метод сжатия : С потерями
Размер потока : 20,0 Мбайт (10%)
Выравнивание : Соединение по промежуткам
Продолжительность промежутка : 24 мс. (0,58 видеокадр)
Время предзагрузки промежутка : 553 мс.

Год выпуска: 2010
Страна: США
Жанр: комедия
Продолжительность: 24 серии x 22 минуты
Перевод: Профессиональный (двухголосый) [Кубик в кубе]

Автор идеи: Джейсон Уайнер, Рэндолл Эйнхорн
В ролях: Эд О’Нил, Джули Боуэн, Ти Баррелл, София Вергара, Джесси Тайлер Фергюсон, Эрик Стоунстрит, Сара Хайланд, Нолан Гоулд
Описание: Второй сезон продолжает увлекательные и забавные случаи с семьями. На этот раз Клэр и Фил, наконец, отпустят прошлое, в последний раз сев за руль старого семейного универсала. Все члены семья отметят костюмированный Хэллоуин. Мама Кемерона внесет некоторые разногласия в семейную жизнь сына. А Митчелл по-настоящему осознает, что значит быть родителем
Качество: HDTVRip
Формат: AVI
Видео кодек: XviD
Аудио кодек: MPEG Layer 3
Видео: 624x352 (1.77:1), 23.976 fps, XviD build 50 ~1008 kbps avg, 0.19 bit/pixel
Аудио (Rus): 48 kHz, MPEG Layer 3, 2 ch, ~256.00 kbps avg
Аудио (Eng): 48 kHz, MPEG Layer 3, 2 ch, ~128.00 kbps avg
2x01 - The Old Wagon (Старый универсал)
2x02 - The Kiss (Поцелуй)
2x03 - Earthquake (Землетрясение)
2x04 - Strangers on a Treadmill (Посторонние на беговой дорожке)
2x05 - Unplugged (Вне сети)
2x06 - Halloween (Хеллоуин)
2x07 - Chirp (Писк)
2x08 - Manny Get Your Gun (Мэнни, дай мне пистолет)
2x09 - Mother Tucker (Такер, твою мать!)
2x10 - Dance Dance Revelation (Танцевальное откровение)
2x11 - Slow Down Your Neighbors (Притормози соседей)
2x12 - Our Children, Ourselves (Мы и наши дети)
2x13 - Caught in the Act (Застукали)
2x14 - Bixby's Back (Возвращение Биксби)
2x15 - Princess Party (Вечеринка принцессы)
2x16 - Regrets Only (Отказ от приглашения)
2x17 - Two Monkeys and a Panda (Две обезьяны и панда)
2x18 - Boys' Night (Мальчишник)
2x19 - The Musical Man (Человек-спектакль)
2x20 - Someone to Watch Over Lily (Опекун для Лили)
2x21 - Mother's Day (День матери)
2x22 - Good Cop Bad Dog (Хороший полицейский, плохой пес)
2x23 - See You Next Fall (Увидимся следующей осенью)
2x24 - The One That Got Away (Тот, прежний я)
Общее
Полное имя : \Семейные ценности\2 season\Modern.Family.s02e02.avi
Формат : AVI
Формат/Информация : Audio Video Interleave
Размер файла : 215 Мбайт
Продолжительность : 21 м.
Режим общего битрейта : Переменный
Общий поток : 1405 Кбит/сек
Программа кодирования : VirtualDubMod 1.5.10.2 (build 2542/release)
Библиотека кодирования : VirtualDubMod build 2542/release

Видео
Идентификатор : 0
Формат : MPEG-4 Visual
Профиль формата : Advanced Simple@L5
Параметр BVOP формата : 2
Параметр QPel формата : Нет
Параметр GMC формата : Без точки перехода
Параметр матрицы формата : Default (H.263)
Идентификатор кодека : XVID
Идентификатор кодека/Подсказка : XviD
Продолжительность : 21 м.
Битрейт : 998 Кбит/сек
Ширина : 624 пикселя
Высота : 352 пикселя
Соотношение сторон : 16:9
Частота кадров : 23,976 кадра/сек
Цветовое пространство : YUV
Субдискретизация насыщенности : 4:2:0
Битовая глубина : 8 бит
Тип развёртки : Прогрессивная
Метод сжатия : С потерями
Бит/(Пиксели*Кадры) : 0.189
Размер потока : 153 Мбайт (71%)
Библиотека кодирования : XviD 1.2.1 (UTC 2008-12-04)

Аудио #1
Идентификатор : 1
Формат : MPEG Audio
Версия формата : Version 1
Профиль формата : Layer 3
Идентификатор кодека : 55
Идентификатор кодека/Подсказка : MP3
Продолжительность : 21 м.
Вид битрейта : Постоянный
Битрейт : 256 Кбит/сек
Каналы : 2 канала
Частота : 48,0 КГц
Метод сжатия : С потерями
Размер потока : 39,2 Мбайт (18%)
Выравнивание : Соединение по промежуткам
Продолжительность промежутка : 42 мс. (1,00 видеокадр)
Время предзагрузки промежутка : 504 мс.

Аудио #2
Идентификатор : 2
Формат : MPEG Audio
Версия формата : Version 1
Профиль формата : Layer 3
Режим : Joint stereo
Расширение режима : MS Stereo
Идентификатор кодека : 55
Идентификатор кодека/Подсказка : MP3
Продолжительность : 21 м.
Вид битрейта : Переменный
Битрейт : 128 Кбит/сек
Каналы : 2 канала
Частота : 48,0 КГц
Метод сжатия : С потерями
Размер потока : 20,5 Мбайт (10%)
Выравнивание : Соединение по промежуткам
Продолжительность промежутка : 24 мс. (0,58 видеокадр)
Время предзагрузки промежутка : 144 мс.
Библиотека кодирования : LAME3.92
Настройки программы : -m j -V 4 -q 2 -lowpass 17.5 --abr 128
Год выпуска: 2011
Страна: США
Жанр: комедия
Продолжительность: 17 серий x 22 минуты
Перевод: Профессиональный (двухголосый) [Кубик в кубе]

Автор идеи: Джейсон Уайнер, Рэндолл Эйнхорн
В ролях: Эд О’Нил, Джули Боуэн, Ти Баррелл, София Вергара, Джесси Тайлер Фергюсон, Эрик Стоунстрит, Сара Хайланд, Нолан Гоулд
Описание: Сюжет закручивается: когда Джей Притчетт решил устроить себе праздник в честь ухода от него первой жены, он и представить не мог, что скоро снова женится. Не смог Джей устоять перед чарами сногсшибательной колумбийки Глории, ну и кто бы устоял, когда вам в бикини подают коктейли, а тут еще и настроение соответствующее. Теперь у Джея одна проблема как соответствовать своей молодой красотке - жене Глории и угодить ее сыну Мэни. В новой семье Клэр тоже не все так гладко, как кажется на первый взгляд. Муж Фил — просто образец для подражания, такой замечательный, но он думает иначе, и никак не может решить как вести себя с детьми. Есть новости и у Митчелла, сына Джея – он со своим партнером Камероном удочерили Лили, и полностью поглощены воспитанием этого очаровательного младенца.
Качество: HDTVRip
Формат: AVI
Видео кодек: XviD
Аудио кодек: MPEG Layer 3
Видео: 624x352 (1.77:1), 23.976 fps, XviD 1.2 beta 1 (build 43) ~991 kbps avg, 0.19 bit/pixel
Аудио (Rus): 48 kHz, MPEG Layer 3, 2 ch, ~128.00 kbps avgАудио (Eng): 48 kHz, MPEG Layer 3, 2 ch, ~128.00 kbps avg
03x01 - Dude Ranch (На ранчо)
03x02 - When Good Kids Go Bad (Когда хорошие детишки идут спать)
03x03 - Phil On Wire (Фил на проводе)
03x04 - Door to Door (От двери до двери)
03x05 - Hit and Run (Наезд)
03x06 - Go Bullfrogs! (Вперёд, бульноги!)
03x07 - Treehouse
03x08 - After the Fire
03x09 - Punkin Chunkin
03x10 - Express Christmas
03x11 - Lifetime Supply
03x12 - Egg Drop
03x13 - Little Bo Bleep
03x14 - Me? Jealous?
03x15 - Aunt Mommy
03x16 - Virgin Territory
03x17 - Leap Day
Общее
Полное имя : \Семейные ценности\3 season\Modern.Family.s03e01.HDTVRip.Kybik.v.Kybe.avi
Формат : AVI
Формат/Информация : Audio Video Interleave
Размер файла : 195 Мбайт
Продолжительность : 21 м.
Режим общего битрейта : Переменный
Общий поток : 1266 Кбит/сек
Программа кодирования : VirtualDubMod 1.5.10.2 (build 2540/release)
Библиотека кодирования : VirtualDubMod build 2540/release

Видео
Идентификатор : 0
Формат : MPEG-4 Visual
Профиль формата : Advanced Simple@L5
Параметр BVOP формата : 2
Параметр QPel формата : Нет
Параметр GMC формата : Без точки перехода
Параметр матрицы формата : Default (H.263)
Идентификатор кодека : XVID
Идентификатор кодека/Подсказка : XviD
Продолжительность : 21 м.
Битрейт : 987 Кбит/сек
Ширина : 624 пикселя
Высота : 352 пикселя
Соотношение сторон : 16:9
Частота кадров : 23,976 кадра/сек
Цветовое пространство : YUV
Субдискретизация насыщенности : 4:2:0
Битовая глубина : 8 бит
Тип развёртки : Прогрессивная
Метод сжатия : С потерями
Бит/(Пиксели*Кадры) : 0.187
Размер потока : 152 Мбайт (78%)
Библиотека кодирования : XviD 1.2.0SMP (UTC 2006-01-08)

Аудио #1
Идентификатор : 1
Формат : MPEG Audio
Версия формата : Version 1
Профиль формата : Layer 3
Режим : Joint stereo
Расширение режима : MS Stereo
Идентификатор кодека : 55
Идентификатор кодека/Подсказка : MP3
Продолжительность : 21 м.
Вид битрейта : Постоянный
Битрейт : 128 Кбит/сек
Каналы : 2 канала
Частота : 48,0 КГц
Метод сжатия : С потерями
Размер потока : 19,8 Мбайт (10%)
Выравнивание : Соединение по промежуткам
Продолжительность промежутка : 42 мс. (1,00 видеокадр)
Время предзагрузки промежутка : 504 мс.

Аудио #2
Идентификатор : 2
Формат : MPEG Audio
Версия формата : Version 1
Профиль формата : Layer 3
Режим : Joint stereo
Расширение режима : MS Stereo
Идентификатор кодека : 55
Идентификатор кодека/Подсказка : MP3
Продолжительность : 21 м.
Вид битрейта : Переменный
Битрейт : 128 Кбит/сек
Каналы : 2 канала
Частота : 48,0 КГц
Метод сжатия : С потерями
Размер потока : 20,6 Мбайт (11%)
Выравнивание : Соединение по промежуткам
Продолжительность промежутка : 24 мс. (0,58 видеокадр)
Время предзагрузки промежутка : 225 мс.
Библиотека кодирования : LAME3.90.
Настройки программы : -m j -V 4 -q 2 -lowpass 17.6 --abr 128
Внимание! Раздача ведётся путём добавления новых серий; при каждом добавлении создётся новый торрент. Чтобы начать докачку новой серии, пользователям необходимо сделать следующее:
(1) остановить скачивание,
(2) удалить старый торрент у себя из клиента (старые серии удалять не надо),
(3) скачать новый торрент и запустить его у себя в клиенте вместо старого, при этом указать клиенту путь в старую папку куда и должно происходить скачивание новых серий.

Ваш клиент при этом должен произвести хеширование (проверку) старой папки (если не производит сам - помогите ему сделать это), и будет докачивать только те серии которых у вас ещё нет. Старые серии при этом не удаляются, а продолжают раздаваться!

Eсли вы уже удалили старые серии, то предотвратить повторную закачку старых серий можно, отжав галочку в соответсвующих местах при запуске нового торрента. По возможности, желательно не удалять старые серии как можно дольше чтобы релизёр не столько продолжал раздавать старые серии, а смог сконцентрироваться на новых.
pb.wtf



Скачать Семейные ценности через торрент http://pic.kartinco.top/images/2011/81q9zdya97.jpg Скачать фильм Семейные ценностичерез торрент бесплантно в хорошем качестве Описание:Джей Притчетт познакомился со сногсшибательной колумбийкой Глорией, когда она в бикини подавала ему коктейли на вечеринке, которую ... 9.5 10 2
Info! Золотая раздача, скачанное не засчитывается.
Торрент: Зарегистрирован [2012-03-26 16:25] · скачан: 5 раз
Статус: √ проверено
Размер: 13.26 GB
Как cкачать? Как скачать Семейные ценности через торрент | qTorrent

% Раздел Тема Автор DL S | L
T Фильмы (мультфильмы) cо спонсором показа (Новинки AVI/MKV) [ 1.37 GB ] Семейные ценности / Family Possessions [2016 DVDRip] MVO ["Синема УС"] bober100 Скачать
1 | 0
Порно фильмы без сюжета [ 1.81 GB ] Семейные Ценности / Family Values [2016 Incest Family Roleplay WEB-DL Оригинальный] DJASFUL Скачать
1 | 1
Документальные фильмы и телепередачи [ 44 MB ] Семейные ценности против извращенцев [2012 документальный WEBRip Оригинал] metanoia Скачать
1 | 0
Зарубежные сериалы [ 4.74 GB ] Семейные ценности / Американская семейка / Modern Family / Сезон: 4 / Эпизод 1-20 [2012 WEB-DLRip] DVO wekotila Скачать
1 | 0
Разное [ 309 MB ] Семейные ценности / Natalia Starr in My Dad's Hot Girlfriend [2013 Cum on Tits Euro Foreign Accent Hairy Pussy High Heels SATRip] sheker187 Скачать
1 | 0
Документальные фильмы и телепередачи [ 122 MB ] Защита семейных ценностей [2012 документальный HDTVRip] metanoia Скачать
1 | 0


Последний раз редактировалось: 0xiDESK (2012-03-26 16:27), всего редактировалось 30 раз(а)

28-11-2019 20:33  

Отключить всю рекламу на сайте

26-12-2011 18:04 Семейные ценности Скачать торрент  

сериал отличный, не пошлый....
если понравится могу выложить 2 и 3 сезоны, желательно пишите до чт а то потом скорость отдачи будет поменьше, т.к уеду в др место и недели 2 буду раздавать с др скоростьюpb.wtf



26-12-2011 19:29 Семейные ценности Скачать торрент  

ЛостФильм получше будет.pb.wtf



26-12-2011 20:05 Семейные ценности Скачать торрент  

lolocard
возможно, в лосте не смотрел вообще, сложно с одного перевода на другой перестраиватьсяpb.wtf





Последний раз редактировалось: 0xiDESK (2011-12-27 01:49), всего редактировалось 1 раз

26-12-2011 20:14 Семейные ценности Скачать торрент  

0xiDESK писал(а):

сериал отличный, не пошлый....
если понравится могу выложить 2 и 3 сезоны, желательно пишите до чт а то потом скорость отдачи будет поменьше, т.к уеду в др место и недели 2 буду раздавать с др скоростью

спасибо,выкладывай конечно :good: :good: :good:pb.wtf



26-12-2011 22:53 Семейные ценности Скачать торрент  

Сериал класс, спасибо огромное, даёшь продолжение :)pb.wtf



29-12-2011 16:07 Семейные ценности Скачать торрент  

времени не было добавить, да и уехал раньше выложу, в первых числах января....pb.wtf



16-01-2012 10:19 Семейные ценности Скачать торрент  

Добавлены 2 и 3 сезоны!
Обновите торрент-файл!
Спасибо!
pb.wtf



16-01-2012 16:03 Семейные ценности Скачать торрент  

спасибо!pb.wtf



30-01-2012 07:08 Семейные ценности Скачать торрент  

Добавлена 11 серия!
Пожалуйста обновите торрент-файл!
Приятного просмотра!
Спасибо!
pb.wtf



05-02-2012 20:46 Семейные ценности Скачать торрент  

Добавлена 12 серия!
Пожалуйста обновите торрент-файл!
Приятного просмотра!
Спасибо!
pb.wtf



07-02-2012 16:24 Семейные ценности Скачать торрент  

выкладывай 2 и3pb.wtf



07-02-2012 21:30 Семейные ценности Скачать торрент  

JBOND писал(а):

выкладывай 2 и3

ну вроде уже, и вроде как давно =)pb.wtf



12-02-2012 18:47 Семейные ценности Скачать торрент  

Добавлена 13 серия!
Пожалуйста обновите торрент-файл!
Приятного просмотра!
Спасибо!
pb.wtf



28-02-2012 13:59 Семейные ценности Скачать торрент  

Добавлена 14 серия!
Пожалуйста обновите торрент-файл!
Приятного просмотра!
Спасибо!
pb.wtf



01-03-2012 19:13 Семейные ценности Скачать торрент  

Добавлена 15 серия!
Пожалуйста обновите торрент-файл!
Приятного просмотра!
Спасибо!
pb.wtf



Друзья, наш проект PiratBit построен на чистом энтузиазме. Денег от рекламы он приносит мало, потому как нет хороших, богатых рекламодателей, которые бы хотели работать с сайтами, которые нарушают законодательство той или иной страны, да и вешать какую-то шлако-рекламу с вирусами тоже мы не хотим, поскольку мы уважаем своих пользователей и Ваша безопасность на нашем сайте для нас превыше всего. В связи с этим, мы вынуждены просить помощи у каждого из Вас. Каких-то 3, 5, 10 рублей для каждого из Вас по большому счету копейки, а для нас это будет хорошая поддержка.
Нашими приоритетами всегда были качество и быстрота везде и во всем!!!
Технически так сложилось, чтобы все "летало" мы используем 4 мощных абузоустойчивых сервера, каждый из которых стоит 100$ в месяц.
Ребята, мы будем рады любой помощи, надеюсь на понимание Devi...

Важно, если ваш платеж составляет больше 100 руб.(единоразово) то мы для вас отключим рекламу на месяц, 200=2мес., 300=3мес., 400=4мес., если больше чем 499 руб.(единоразово) то на 6 месяцев, УКАЗЫВАЙТЕ СВОЙ НИК В ПРИМЕЧАНИИ К ПЛАТЕЖУ!


Яндекс Деньги,QIWI,WebMoney,Steam,Payeer,СберБанк,Мобильный,BitCoin,PayPal

02-03-2012 22:28 Семейные ценности Скачать торрент  

Добавлена 16 серия!
Пожалуйста обновите торрент-файл!
Приятного просмотра!
Спасибо!
pb.wtf



03-03-2012 01:42 Семейные ценности Скачать торрент  

[спс|pb.wtf



26-03-2012 16:42 Семейные ценности Скачать торрент  

Добавлена 17 серия!
Пожалуйста обновите торрент-файл!
Приятного просмотра!
Спасибо!
pb.wtf



20-08-2013 09:06 Семейные ценности Скачать торрент  

Дайте скорости плиз. pb.wtf



29-09-2013 14:40 Семейные ценности Скачать торрент  

Уже есть 4-ый сезон весь и начал выходить 5-й.
Будут ли его выкладывать здесь?pb.wtf



02-03-2014 17:37 Семейные ценности Скачать торрент  

blja, ну сколько можно закачивать...pb.wtf



    Дорогой пользователь! Огромная просьба, поблагодарите релизера, оцените раздачу и оставьте свои комментарий, если Вы скачали Семейные ценности через торрент бесплатно! Внесите свою лепту в развитие PiratBit!
    Комментировать посты могут только пользователи прошедшие не сложную регистрацию
    Показать сообщения:    

    Семейные ценности через торрент
    Скачать бесплатно Семейные ценности
    Семейные ценности скачать торрент
    Семейные ценности смотреть онлайн
    Cкачать фильм Семейные ценности бесплатно
    Семейные ценности скачать торрент в хорошем качестве
    Семейные ценности смотреть онлайн бесплатно в хорошем качестве


    Вы не можете начинать темы
    Вы не можете отвечать на сообщения
    Вы не можете редактировать свои сообщения
    Вы не можете удалять свои сообщения
    Вы не можете голосовать в опросах
    Вы не можете прикреплять файлы к сообщениям
    Вы можете скачивать файлы