Ссылка на приватное зеркало нашего сайта всего за 1$. Внимание количество ограничено!!!

2 сезон

iTunes

1 сезон

1

2 сезон

2 сезон

iTunes

1 сезон

RePack

30

Ultimate

ВАЖНО

ИГРА 18+

pack

RePack

MK11
pack

Забери бонус

RePack

jed

!!Акция!!

Alien_Rage

RePack

fifa19

RePack

Assassins Creed: Odyssey

RePack

NEED FOR SPEED™ PAYBACK

4 сезон

9 сезон

Бесстыжие 9 сезон

Все сериалы

все сериалы на PB.wtf

RePack

FAR CRY 5
  

Распутные Девочки Любят Rocco 4 / Slutty Girls Love Rocco 4 (Rocco Siffredi, Evil Angel) [2011 г., Gonzo, Oral, Anal, DP, Ass To Mouth, Facial, Russian Girls, DVD5] pb.wtf

Распутные Девочки Любят Rocco 4 через торрент pb.wtf

Размер: 4.36 GB | Добавлен: 8 лет 11 мес. назад | Торрент скачан:511 раз
Скачать  

28-12-2011 13:07 Распутные Девочки Любят Rocco 4 Скачать торрент  

Slutty Girls Love Rocco 4 / Распутные Девочки Любят Rocco 4

Год производства: 2011 г.
Страна: USA
Жанр: Gonzo, Oral, Anal, DP, Ass To Mouth, Facial, Russian Girls
Продолжительность: 02:18:48 (фильм) + 01:15:24 (бонус)
Режиссер: Rocco Siffredi
Студия: Evil Angel
Язык: Английский
В ролях: Actresses-
Paulina (as Alice Miller) [Anal Facial Bald A2M]
Angel Rivas [Anal Facial Bald A2M]
Bailee (as Bailey) [Anal DP]
Bernice [Anal Facial Bald A2M]
Jana (as Betty) [Anal Facial Bald A2M]
Nicole Sweet [Facial]
DVD Only- Abigaile Johnson, Rose (as Amy)
Actors- Ian Scott, Mike Angelo, Rocco Siffredi, Vadim Muromtsev (as Vadim)
Scene 1. Paulina, Angel Rivas, Rocco Siffredi
Scene 2. Jana, Mike Angelo, Vadim Muromtsev
Scene 3. Bernice, Nicole Sweet, Rocco Siffredi
Scene 4. Bailee, Ian Scott, Mike Angelo
Описание: In his long international career, director/stud Rocco Siffredi has always been a magnet for lovely ladies who'll do almost anything for an erotic thrill. "Slutty Girls Love Rocco 4" continues the series dedicated to such special women, celebrating their willingness to commit the most perverse acts in the name of lust! First, Rocco meets his young acquaintance, tiny brunette Angel Rivas, along with her gorgeous friend Alice Miller. Rocco lures the girls to his apartment for an acrobatic three-way involving dick sucking, rimming and nasty anal sex before climaxing in a swapped oral cum shot. Next, sexy, natural-breasted Russian vacationer Betty enjoys a threesome with two big-dicked studs who face-fuck and butt-bang her silly... after the tacky gents smooth the way with $100 bills. Brunette Nicole Sweet and petite blonde Bernice have an ass-licking make-out session together before expanding the party to include Rocco. He sodomizes Bernice and ejaculates in both girls' mouths. Finally, black-haired beauty Bailey meets Mike Angelo beside a lake. He seduces the kinky cutie and brings her home to share with his pal Ian Scott. Clad in black and purple fetish wear and sheer stockings, young Bailey services both guys at once in a double-penetration scene that climaxes with two cum facials for the hardworking performer. There's nothing better than slutty girls doing what (and who) they love!Трейлер
Меню: Есть
Доп. материалы и бонусы: http://www.adultdvdemart.com/-/adult_dvd_product_in...87B-C04B0A2D35E6
Качество видео: DVD5
Аудио кодек: AC3
Видео: 7500 Kbps, 29.970 fps, 720*480 (or 853*480 / 16:9), MPG2 = MPEG 2 (SVCD/DVD)
Аудио: 192 Kbps, 48000 Hz, 2 ch, 0x2000 = AC3 DVM [0x80]
Общее
Полное имя : F:\download\Slutty Girls Love Rocco 4 (2011) DVD5\VIDEO_TS\VTS_01_1.VOB
Формат : MPEG-PS
Размер файла : 1024 Мбайт
Продолжительность : 49 м.
Общий поток : 2907 Кбит/сек
Видео
Идентификатор : 224 (0xE0)
Формат : MPEG Video
Версия формата : Version 2
Профиль формата : Main@Main
Параметр BVOP формата : Да
Параметр матрицы формата : Выборочная
Параметры GOP формата : M=3, N=15
Продолжительность : 49 м.
Вид битрейта : Переменный
Битрейт : 2657 Кбит/сек
Максимальный битрейт : 7500 Кбит/сек
Ширина : 720 пикс.
Высота : 480 пикс.
Соотношение сторон : 16:9
Частота кадров : 29,970 кадр/сек
Стандарт вещания : NTSC
Цветовое пространство : YUV
Подвыборка цветности : 4:2:0
Битовая глубина : 8 бит
Тип развёртки : Чересстрочная
Порядок развёртки : Верхнее поле первое
Метод сжатия : С потерями
Бит/(Пиксели*Кадры) : 0.257
Размер потока : 936 Мбайт (91%)
Аудио
Идентификатор : 189 (0xBD)-128 (0x80)
Формат : AC-3
Формат/Информация : Audio Coding 3
Расширение режима : CM (complete main)
Режим смешивания : DVD-Video
Продолжительность : 49 м.
Вид битрейта : Постоянный
Битрейт : 192 Кбит/сек
Каналы : 2 канала
Расположение каналов : Front: L R
Частота : 48,0 КГц
Битовая глубина : 16 бит
Метод сжатия : С потерями
Размер потока : 67,6 Мбайт (7%)
Меню
pb.wtf



pack Скачать Распутные Девочки Любят Rocco 4 через торрент http://pic.kartinco.top/images/2011/i4zal2o4kp.png Скачать фильм Распутные Девочки Любят Rocco 4 через торрент бесплантно в хорошем качестве Описание: In his long international career, director/stud Rocco Siffredi has always been a magnet for lovely ladies who'll do almost ... 10 10 1
Info! Золотая раздача, скачанное не засчитывается.
Торрент: Зарегистрирован [2011-12-28 13:07] · скачан: 511 раз
Статус: √ проверено
Размер: 4.36 GB
Как cкачать? Как скачать Распутные Девочки Любят Rocco 4 через торрент | qTorrent

% Раздел Тема Автор DL S | L
Порно фильмы HD [ 9.87 GB ] Распутные Девочки Любят Рокко 4 / Slutty Girls Love Rocco 4 [2012 Gonzo Oral Anal DP Ass To Mouth Facial Russian Girls WEB-DL 1080р] лисяра Скачать
1 | 0
Порно фильмы DVD [ 7.76 GB ] Распутные Девочки Любят Rocco 4 / Slutty Girls Love Rocco 4 [2011 Gonzo Anal Russian Girls DVD9] compact2010 Скачать
1 | 0
Гонзо [ 1.36 GB ] Slutty Girls Love Rocco 4 / Распутные Девочки Любят Rocco 4 [2011 Gonzo Anal Russian Girls DVDRip] Release Date: Dec 05 2011! abrikos Скачать
1 | 0

28-11-2019 20:33  

Отключить всю рекламу на сайте

    Дорогой пользователь! Огромная просьба, поблагодарите релизера, оцените раздачу и оставьте свои комментарий, если Вы скачали Распутные Девочки Любят Rocco 4 через торрент бесплатно! Внесите свою лепту в развитие PiratBit!
    Комментировать посты могут только пользователи прошедшие не сложную регистрацию
    Показать сообщения:    

    Распутные Девочки Любят Rocco 4 через торрент
    Скачать бесплатно Распутные Девочки Любят Rocco 4
    Распутные Девочки Любят Rocco 4 скачать торрент
    Распутные Девочки Любят Rocco 4 смотреть онлайн
    Cкачать фильм Распутные Девочки Любят Rocco 4 бесплатно
    Распутные Девочки Любят Rocco 4 скачать торрент в хорошем качестве
    Распутные Девочки Любят Rocco 4 смотреть онлайн бесплатно в хорошем качестве


    Вы не можете начинать темы
    Вы не можете отвечать на сообщения
    Вы не можете редактировать свои сообщения
    Вы не можете удалять свои сообщения
    Вы не можете голосовать в опросах
    Вы не можете прикреплять файлы к сообщениям
    Вы можете скачивать файлы