Присоединяйтесь к нам в Telegram!, здесь всегда актуальный адрес сайта, оперативная поддержка и многое другое!!

>

5.9

iTunes

7.4

iTunes

9.4

1 сезон

1

7.4

2 сезон

7.2

iTunes

7.3

1 сезон

13

6.1

iTunes

8.3

GOG

30

ULTIMATE

pack

9.9

Лицензия

ВАЖНО

ИГРА 18+

pack

7.3

RePack

MK11

7.7

RePack

jed

7.8

RePack

fifa19

8.5

RePack

RDR2

RePack

NEED FOR SPEED™ PAYBACK

5 сезон

9 сезон

Бесстыжие 9 сезон

Все сериалы

все сериалы на PB.wtf

RePack

FAR CRY 5

Anonymous, доброе утро, мы катастрофически не успеваем собрать деньги на оплату серверов, помогите нам пожалуйста 5,10,15р., для нас важна любая помощь . В качестве благодарности мы отключим Вам всю рекламу на сайте (укажите свой ник в строку Ваше имя)!

×
  
Magnet ссылка

клипы-2011 [2011 г., Pop,Rap, HDTV] pb.wtf

клипы-2011 через торрент pb.wtf

Размер: 2.88 GB | Добавлен: 9 лет назад | Торрент скачан:843 раза
Смотреть онлайн клипы-2011 | Скачать    Ребята, помогите собрать деньги на оплату серверов!!!

28-12-2011 16:38 клипы-2011 Скачать торрент  

[font="Georgia"]клипы-2011



[font="Georgia"]Год выпуска: 2011
Страна: Россия
Жанр: Pop,Rap
Продолжительность: 01:26:18
Перевод: Не требуется


[font="Georgia"]
1)MMDANCE - Новогодняя (Новый Год 2012).mp4
2)SEREBRO - Мама Люба.mp4
3)Баста - Райские Яблоки (В.С. Высоцкий).mp4
4)Вера Брежнева - Реальная жизнь (Vera Brezhneva - Real Life).m2t
5)Виа Гра - Пошёл вон.m2t
6)Винтаж - Деревья.mp4
7)ВИТЯ АК, АЙК ДЫМ, ТРИАГРУТРИКА - АКУНА МАТАТА [ RussianRapAK47 ].mp4
8)Группа РАДИ СЛАВЫ - Слишком мало слов.mp4
9)Даша Суворова - Поставит Басту (До утра).mp4
10)Даша Суворова - Я пою тебе.mp4
11)Джиган feat. Жанна Фриске - Ты рядом (Official video).mp4
12)Дискотека Авария - Нано - Техно.mp4
13)Каста - Такое чувство НОВЫЙ КЛИП (official HD).mp4
14)МакSим - Осколки.mp4
15)МОБИЛЬНЫЕ БЛОНДИНКИ Новый кот клип.m2t
16)Потап и Настя Каменских - Если вдруг тебя не станет.mp4
17)ПРЕМЬЕРА! Dan Balan - Лишь до утра.mp4
18)ПРЕМЬЕРА! Нюша - Выше.mp4
19)Пропаганда - Я Такая [OFFICIAL].mp4
20)Сати Казанова Буэнос - Айрес клип.m2t
21)Света Пятый элемент (официальное видео).m2t
22)Юля Савичева feat. T9 - Корабли Julja Savicheva feat. T9 - Ships.mp4


[font="Georgia"]Качество: HDTVRip
Формат: MPEG-4,MPEG-TS
Видео кодек: MPEG-2,MPEG-4,AVC.
Аудио кодек: MPEG Audio,AAC LC
Видео: AVC at 6002 Кбит/сек Aspect : 1920 x 1080 (1.778) at 25.000 fps, MPEG Video at 12,1 Мбит/сек
Aspect : 1280 x 720 (1.778) at 25.000 fps
Аудио: AAC at 152 Кбит/сек Infos : 2 канала, 44,1 КГц, MPEG Audio at 384 Кбит/сек Infos : 2 канала, 48,0 КГц

скриншот  скриншот  скриншот  скриншот  скриншот  скриншот  скриншот  скриншот  скриншот  скриншот  скриншот  скриншот  скриншот  скриншот  скриншот  скриншот  

[font="Georgia"]
Общее
Полное имя : D:\Клипы\клипы 2011\MMDANCE - Новогодняя (Новый Год 2012).mp4
Формат : MPEG-4
Профиль формата : Base Media / Version 2
Идентификатор кодека : mp42
Размер файла : 159 Мбайт
Продолжительность : 3 м. 37 с.
Общий поток : 6156 Кбит/сек
Дата кодирования : UTC 2011-12-05 10:56:45
Дата пометки : UTC 2011-12-05 10:56:45
gsst : 0
gstd : 217245
gssd : BADC23A04HH1325084666631226
gshh : o-o.preferred.svo01s01.v4.lscache5.c.youtube.com

Видео
Идентификатор : 1
Формат : AVC
Формат/Информация : Advanced Video Codec
Профиль формата : High@L4.0
Параметр CABAC формата : Да
Параметр ReFrames формата : 1 кадр
Параметры GOP формата : M=1, N=50
Идентификатор кодека : avc1
Идентификатор кодека/Информация : Advanced Video Coding
Продолжительность : 3 м. 37 с.
Вид битрейта : Переменный
Битрейт : 6002 Кбит/сек
Максимальный битрейт : 12,1 Мбит/сек
Ширина : 1920 пикс.
Высота : 1080 пикс.
Соотношение сторон : 16:9
Режим частоты кадров : Постоянный
Частота кадров : 25,000 кадр/сек
Цветовое пространство : YUV
Подвыборка цветности : 4:2:0
Битовая глубина : 8 бит
Тип развёртки : Прогрессивная
Бит/(Пиксели*Кадры) : 0.116
Размер потока : 155 Мбайт (97%)
Дата пометки : UTC 2011-12-05 10:56:46

Аудио
Идентификатор : 2
Формат : AAC
Формат/Информация : Advanced Audio Codec
Профиль формата : LC
Идентификатор кодека : 40
Продолжительность : 3 м. 37 с.
Вид битрейта : Переменный
Битрейт : 152 Кбит/сек
Максимальный битрейт : 177 Кбит/сек
Каналы : 2 канала
Расположение каналов : Front: L R
Частота : 44,1 КГц
Метод сжатия : С потерями
Размер потока : 3,93 Мбайт (2%)
Заголовок : IsoMedia File Produced by Google, 5-11-2011
Дата кодирования : UTC 2011-12-05 10:56:46
Дата пометки : UTC 2011-12-05 10:56:46

Общее
Полное имя : D:\Клипы\клипы 2011\SEREBRO - Мама Люба.mp4
Формат : MPEG-4
Профиль формата : Base Media / Version 2
Идентификатор кодека : mp42
Размер файла : 243 Мбайт
Продолжительность : 5 м. 32 с.
Общий поток : 6132 Кбит/сек
Дата кодирования : UTC 2011-09-14 07:54:17
Дата пометки : UTC 2011-09-14 07:54:17
gsst : 0
gstd : 332120
gssd : BADC23A21HH1325070688797965
gshh : o-o.preferred.svo01s01.v13.lscache7.c.youtube.com

Видео
Идентификатор : 1
Формат : AVC
Формат/Информация : Advanced Video Codec
Профиль формата : High@L4.0
Параметр CABAC формата : Да
Параметр ReFrames формата : 1 кадр
Идентификатор кодека : avc1
Идентификатор кодека/Информация : Advanced Video Coding
Продолжительность : 5 м. 32 с.
Вид битрейта : Переменный
Битрейт : 5975 Кбит/сек
Максимальный битрейт : 8496 Кбит/сек
Ширина : 1920 пикс.
Высота : 1080 пикс.
Соотношение сторон : 16:9
Режим частоты кадров : Постоянный
Частота кадров : 25,000 кадр/сек
Цветовое пространство : YUV
Подвыборка цветности : 4:2:0
Битовая глубина : 8 бит
Тип развёртки : Прогрессивная
Бит/(Пиксели*Кадры) : 0.115
Размер потока : 237 Мбайт (97%)
Дата пометки : UTC 2011-09-14 07:54:18

Аудио
Идентификатор : 2
Формат : AAC
Формат/Информация : Advanced Audio Codec
Профиль формата : LC
Идентификатор кодека : 40
Продолжительность : 5 м. 32 с.
Вид битрейта : Переменный
Битрейт : 152 Кбит/сек
Максимальный битрейт : 199 Кбит/сек
Каналы : 2 канала
Расположение каналов : Front: L R
Частота : 44,1 КГц
Метод сжатия : С потерями
Размер потока : 6,01 Мбайт (2%)
Заголовок : IsoMedia File Produced by Google, 5-11-2011
Дата кодирования : UTC 2011-09-14 07:54:17
Дата пометки : UTC 2011-09-14 07:54:18

Общее
Полное имя : D:\Клипы\клипы 2011\Баста - Райские Яблоки (В.С. Высоцкий).mp4
Формат : MPEG-4
Профиль формата : Base Media / Version 2
Идентификатор кодека : mp42
Размер файла : 97,3 Мбайт
Продолжительность : 3 м. 28 с.
Общий поток : 3907 Кбит/сек
Дата кодирования : UTC 2011-10-19 16:19:12
Дата пометки : UTC 2011-10-19 16:19:12
gsst : 0
gstd : 208880
gssd : B4A7DA8E5HH1325081925210581
gshh : o-o.preferred.svo01s01.v17.lscache3.c.youtube.com

Видео
Идентификатор : 1
Формат : AVC
Формат/Информация : Advanced Video Codec
Профиль формата : High@L4.0
Параметр CABAC формата : Да
Параметр ReFrames формата : 1 кадр
Параметры GOP формата : M=1, N=50
Идентификатор кодека : avc1
Идентификатор кодека/Информация : Advanced Video Coding
Продолжительность : 3 м. 28 с.
Вид битрейта : Переменный
Битрейт : 3753 Кбит/сек
Максимальный битрейт : 7867 Кбит/сек
Ширина : 1920 пикс.
Высота : 1080 пикс.
Соотношение сторон : 16:9
Режим частоты кадров : Постоянный
Частота кадров : 25,000 кадр/сек
Цветовое пространство : YUV
Подвыборка цветности : 4:2:0
Битовая глубина : 8 бит
Тип развёртки : Прогрессивная
Бит/(Пиксели*Кадры) : 0.072
Размер потока : 93,4 Мбайт (96%)
Дата пометки : UTC 2011-10-19 16:19:13

Аудио
Идентификатор : 2
Формат : AAC
Формат/Информация : Advanced Audio Codec
Профиль формата : LC
Идентификатор кодека : 40
Продолжительность : 3 м. 28 с.
Вид битрейта : Переменный
Битрейт : 150 Кбит/сек
Максимальный битрейт : 256 Кбит/сек
Каналы : 2 канала
Расположение каналов : Front: L R
Частота : 44,1 КГц
Метод сжатия : С потерями
Размер потока : 3,73 Мбайт (4%)
Заголовок : IsoMedia File Produced by Google, 5-11-2011
Дата кодирования : UTC 2011-10-19 16:19:12
Дата пометки : UTC 2011-10-19 16:19:13

Общее
Идентификатор : 255 (0xFF)
Полное имя : D:\Клипы\клипы 2011\Вера Брежнева - Реальная жизнь (Vera Brezhneva - Real Life).m2t
Формат : MPEG-TS
Размер файла : 354 Мбайт
Продолжительность : 3 м. 51 с.
Общий поток : 12,8 Мбит/сек

Видео
Идентификатор : 2064 (0x810)
Идентификатор меню : 100 (0x64)
Формат : MPEG Video
Версия формата : Version 2
Профиль формата : Main@Main
Параметр BVOP формата : Да
Параметр матрицы формата : По умолчанию
Параметры GOP формата : M=3, N=15
Идентификатор кодека : 2
Продолжительность : 3 м. 51 с.
Вид битрейта : Постоянный
Битрейт : 12,1 Мбит/сек
Ширина : 1280 пикс.
Высота : 720 пикс.
Соотношение сторон : 16:9
Частота кадров : 25,000 кадр/сек
Стандарт вещания : PAL
Цветовое пространство : YUV
Подвыборка цветности : 4:2:0
Битовая глубина : 8 бит
Тип развёртки : Прогрессивная
Метод сжатия : С потерями
Бит/(Пиксели*Кадры) : 0.524
Размер потока : 326 Мбайт (92%)

Аудио
Идентификатор : 2068 (0x814)
Идентификатор меню : 100 (0x64)
Формат : MPEG Audio
Версия формата : Version 1
Профиль формата : Layer 2
Идентификатор кодека : 3
Продолжительность : 3 м. 51 с.
Вид битрейта : Постоянный
Битрейт : 384 Кбит/сек
Каналы : 2 канала
Частота : 48,0 КГц
Метод сжатия : С потерями
Размер потока : 10,6 Мбайт (3%)

Общее
Идентификатор : 255 (0xFF)
Полное имя : D:\Клипы\клипы 2011\Виа Гра - Пошёл вон.m2t
Формат : MPEG-TS
Размер файла : 382 Мбайт
Продолжительность : 4 м. 9 с.
Общий поток : 12,8 Мбит/сек

Видео
Идентификатор : 2064 (0x810)
Идентификатор меню : 100 (0x64)
Формат : MPEG Video
Версия формата : Version 2
Профиль формата : Main@Main
Параметр BVOP формата : Да
Параметр матрицы формата : По умолчанию
Параметры GOP формата : M=3, N=15
Идентификатор кодека : 2
Продолжительность : 4 м. 9 с.
Вид битрейта : Постоянный
Битрейт : 12,1 Мбит/сек
Ширина : 1280 пикс.
Высота : 720 пикс.
Соотношение сторон : 16:9
Частота кадров : 25,000 кадр/сек
Стандарт вещания : PAL
Цветовое пространство : YUV
Подвыборка цветности : 4:2:0
Битовая глубина : 8 бит
Тип развёртки : Прогрессивная
Метод сжатия : С потерями
Бит/(Пиксели*Кадры) : 0.524
Размер потока : 351 Мбайт (92%)

Аудио
Идентификатор : 2068 (0x814)
Идентификатор меню : 100 (0x64)
Формат : MPEG Audio
Версия формата : Version 1
Профиль формата : Layer 2
Идентификатор кодека : 3
Продолжительность : 4 м. 9 с.
Вид битрейта : Постоянный
Битрейт : 384 Кбит/сек
Каналы : 2 канала
Частота : 48,0 КГц
Метод сжатия : С потерями
Размер потока : 11,4 Мбайт (3%)

Общее
Полное имя : D:\Клипы\клипы 2011\Винтаж - Деревья.mp4
Формат : MPEG-4
Профиль формата : Base Media / Version 2
Идентификатор кодека : mp42
Размер файла : 93,2 Мбайт
Продолжительность : 4 м. 49 с.
Общий поток : 2704 Кбит/сек
Дата кодирования : UTC 2011-09-27 09:27:54
Дата пометки : UTC 2011-09-27 09:27:54
gsst : 0
gstd : 289280
gssd : B4A7DA801MH1325082623547749
gshh : o-o.preferred.svo01s01.v1.lscache4.c.youtube.com

Видео
Идентификатор : 1
Формат : AVC
Формат/Информация : Advanced Video Codec
Профиль формата : High@L3.1
Параметр CABAC формата : Да
Параметр ReFrames формата : 1 кадр
Параметры GOP формата : M=1, N=60
Идентификатор кодека : avc1
Идентификатор кодека/Информация : Advanced Video Coding
Продолжительность : 4 м. 49 с.
Вид битрейта : Переменный
Битрейт : 2547 Кбит/сек
Максимальный битрейт : 5156 Кбит/сек
Ширина : 1280 пикс.
Высота : 720 пикс.
Соотношение сторон : 16:9
Режим частоты кадров : Постоянный
Частота кадров : 25,000 кадр/сек
Цветовое пространство : YUV
Подвыборка цветности : 4:2:0
Битовая глубина : 8 бит
Тип развёртки : Прогрессивная
Бит/(Пиксели*Кадры) : 0.111
Размер потока : 87,8 Мбайт (94%)
Дата пометки : UTC 2011-09-27 09:27:56

Аудио
Идентификатор : 2
Формат : AAC
Формат/Информация : Advanced Audio Codec
Профиль формата : LC
Идентификатор кодека : 40
Продолжительность : 4 м. 49 с.
Вид битрейта : Переменный
Битрейт : 152 Кбит/сек
Максимальный битрейт : 179 Кбит/сек
Каналы : 2 канала
Расположение каналов : Front: L R
Частота : 44,1 КГц
Метод сжатия : С потерями
Размер потока : 5,24 Мбайт (6%)
Заголовок : IsoMedia File Produced by Google, 5-11-2011
Дата кодирования : UTC 2011-09-27 09:27:55
Дата пометки : UTC 2011-09-27 09:27:56

Общее
Полное имя : D:\Клипы\клипы 2011\ВИТЯ АК, АЙК ДЫМ, ТРИАГРУТРИКА - АКУНА МАТАТА [ RussianRapAK47 ].mp4
Формат : MPEG-4
Профиль формата : Base Media / Version 2
Идентификатор кодека : mp42
Размер файла : 54,3 Мбайт
Продолжительность : 5 м. 57 с.
Общий поток : 1276 Кбит/сек
Дата кодирования : UTC 2011-12-28 15:57:02
Дата пометки : UTC 2011-12-28 16:05:09

Видео
Идентификатор : 1
Формат : MPEG-4 Visual
Профиль формата : Advanced Simple@L4
Параметр BVOP формата : Нет
Параметр QPel формата : Нет
Параметр GMC формата : Без точки перехода
Параметр матрицы формата : Default (H.263)
Идентификатор кодека : 20
Продолжительность : 5 м. 57 с.
Вид битрейта : Постоянный
Битрейт : 1108 Кбит/сек
Ширина : 1280 пикс.
Высота : 720 пикс.
Соотношение сторон : 16:9
Режим частоты кадров : Постоянный
Частота кадров : 25,000 кадр/сек
Цветовое пространство : YUV
Подвыборка цветности : 4:2:0
Битовая глубина : 8 бит
Тип развёртки : Прогрессивная
Метод сжатия : С потерями
Бит/(Пиксели*Кадры) : 0.048
Размер потока : 47,2 Мбайт (87%)
Язык : English
Дата кодирования : UTC 2011-12-28 15:57:02
Дата пометки : UTC 2011-12-28 16:05:09

Аудио
Идентификатор : 2
Формат : AAC
Формат/Информация : Advanced Audio Codec
Профиль формата : LC
Идентификатор кодека : 40
Продолжительность : 5 м. 57 с.
Вид битрейта : Постоянный
Битрейт : 165 Кбит/сек
Каналы : 2 канала
Расположение каналов : Front: L R
Частота : 44,1 КГц
Метод сжатия : С потерями
Размер потока : 7,04 Мбайт (13%)
Язык : English
Дата кодирования : UTC 2011-12-28 15:57:02
Дата пометки : UTC 2011-12-28 16:05:09

Общее
Полное имя : D:\Клипы\клипы 2011\Группа РАДИ СЛАВЫ - Слишком мало слов.mp4
Формат : MPEG-4
Профиль формата : Base Media / Version 2
Идентификатор кодека : mp42
Размер файла : 148 Мбайт
Продолжительность : 4 м. 4 с.
Общий поток : 5090 Кбит/сек
Дата кодирования : UTC 2011-05-19 07:30:42
Дата пометки : UTC 2011-05-19 07:30:42
gsst : 0
gstd : 244645
gssd : BD0419B01MH1325078178617513
gshh : tc.v16.cache2.c.youtube.com

Видео
Идентификатор : 1
Формат : AVC
Формат/Информация : Advanced Video Codec
Профиль формата : High@L4.0
Параметр CABAC формата : Да
Параметр ReFrames формата : 1 кадр
Параметры GOP формата : M=1, N=60
Идентификатор кодека : avc1
Идентификатор кодека/Информация : Advanced Video Coding
Продолжительность : 4 м. 4 с.
Вид битрейта : Переменный
Битрейт : 4932 Кбит/сек
Максимальный битрейт : 9415 Кбит/сек
Ширина : 1920 пикс.
Высота : 1080 пикс.
Соотношение сторон : 16:9
Режим частоты кадров : Переменный
Частота кадров : 30,000 кадр/сек
Минимальная частота кадров : 29,412 кадр/сек
Максимальная частота кадров : 55,556 кадр/сек
Цветовое пространство : YUV
Подвыборка цветности : 4:2:0
Битовая глубина : 8 бит
Тип развёртки : Прогрессивная
Бит/(Пиксели*Кадры) : 0.079
Размер потока : 144 Мбайт (97%)
Дата пометки : UTC 2011-05-19 07:30:44

Аудио
Идентификатор : 2
Формат : AAC
Формат/Информация : Advanced Audio Codec
Профиль формата : LC
Идентификатор кодека : 40
Продолжительность : 4 м. 4 с.
Вид битрейта : Переменный
Битрейт : 152 Кбит/сек
Максимальный битрейт : 181 Кбит/сек
Каналы : 2 канала
Расположение каналов : Front: L R
Частота : 44,1 КГц
Метод сжатия : С потерями
Размер потока : 4,43 Мбайт (3%)
Дата кодирования : UTC 2011-05-19 07:30:43
Дата пометки : UTC 2011-05-19 07:30:44

Общее
Полное имя : D:\Клипы\клипы 2011\Даша Суворова - Поставит Басту (До утра).mp4
Формат : MPEG-4
Профиль формата : Base Media / Version 2
Идентификатор кодека : mp42
Размер файла : 42,5 Мбайт
Продолжительность : 3 м. 18 с.
Общий поток : 1797 Кбит/сек
Дата кодирования : UTC 2011-03-30 08:42:47
Дата пометки : UTC 2011-03-30 08:42:47
gsst : 0
gstd : 198520
gssd : BADC23A03HH1325070491051557
gshh : o-o.preferred.svo01s01.v15.lscache6.c.youtube.com

Видео
Идентификатор : 1
Формат : AVC
Формат/Информация : Advanced Video Codec
Профиль формата : High@L4.0
Параметр CABAC формата : Да
Параметр ReFrames формата : 1 кадр
Параметры GOP формата : M=1, N=60
Идентификатор кодека : avc1
Идентификатор кодека/Информация : Advanced Video Coding
Продолжительность : 3 м. 18 с.
Вид битрейта : Переменный
Битрейт : 1663 Кбит/сек
Максимальный битрейт : 3392 Кбит/сек
Ширина : 1920 пикс.
Высота : 1080 пикс.
Соотношение сторон : 16:9
Режим частоты кадров : Переменный
Частота кадров : 29,970 кадр/сек
Минимальная частота кадров : 29,412 кадр/сек
Максимальная частота кадров : 200,000 кадр/сек
Цветовое пространство : YUV
Подвыборка цветности : 4:2:0
Битовая глубина : 8 бит
Тип развёртки : Прогрессивная
Бит/(Пиксели*Кадры) : 0.027
Размер потока : 39,4 Мбайт (93%)
Дата пометки : UTC 2011-03-30 08:42:48

Аудио
Идентификатор : 2
Формат : AAC
Формат/Информация : Advanced Audio Codec
Профиль формата : LC
Идентификатор кодека : 40
Продолжительность : 3 м. 18 с.
Вид битрейта : Переменный
Битрейт : 128 Кбит/сек
Максимальный битрейт : 263 Кбит/сек
Каналы : 2 канала
Расположение каналов : Front: L R
Частота : 44,1 КГц
Метод сжатия : С потерями
Размер потока : 3,03 Мбайт (7%)
Заголовок : (C) 2007 Google Inc. v08.13.2007.
Дата кодирования : UTC 2011-03-30 08:42:47
Дата пометки : UTC 2011-03-30 08:42:48

Общее
Полное имя : D:\Клипы\клипы 2011\Даша Суворова - Я пою тебе.mp4
Формат : MPEG-4
Профиль формата : Base Media / Version 2
Идентификатор кодека : mp42
Размер файла : 57,5 Мбайт
Продолжительность : 3 м. 59 с.
Общий поток : 2017 Кбит/сек
Дата кодирования : UTC 2011-11-12 17:35:08
Дата пометки : UTC 2011-11-12 17:35:08
gsst : 0
gstd : 239235
gssd : BADC23A23HH1325078789373138
gshh : o-o.preferred.svo01s01.v15.lscache8.c.youtube.com

Видео
Идентификатор : 1
Формат : AVC
Формат/Информация : Advanced Video Codec
Профиль формата : High@L3.1
Параметр CABAC формата : Да
Параметр ReFrames формата : 1 кадр
Параметры GOP формата : M=1, N=60
Идентификатор кодека : avc1
Идентификатор кодека/Информация : Advanced Video Coding
Продолжительность : 3 м. 59 с.
Вид битрейта : Переменный
Битрейт : 1864 Кбит/сек
Максимальный битрейт : 4218 Кбит/сек
Ширина : 1280 пикс.
Высота : 720 пикс.
Соотношение сторон : 16:9
Режим частоты кадров : Постоянный
Частота кадров : 25,000 кадр/сек
Цветовое пространство : YUV
Подвыборка цветности : 4:2:0
Битовая глубина : 8 бит
Тип развёртки : Прогрессивная
Бит/(Пиксели*Кадры) : 0.081
Размер потока : 53,2 Мбайт (92%)
Дата пометки : UTC 2011-11-12 17:35:09

Аудио
Идентификатор : 2
Формат : AAC
Формат/Информация : Advanced Audio Codec
Профиль формата : LC
Идентификатор кодека : 40
Продолжительность : 3 м. 59 с.
Вид битрейта : Переменный
Битрейт : 150 Кбит/сек
Максимальный битрейт : 201 Кбит/сек
Каналы : 2 канала
Расположение каналов : Front: L R
Частота : 44,1 КГц
Метод сжатия : С потерями
Размер потока : 4,29 Мбайт (7%)
Заголовок : IsoMedia File Produced by Google, 5-11-2011
Дата кодирования : UTC 2011-11-12 17:35:09
Дата пометки : UTC 2011-11-12 17:35:09

Общее
Полное имя : D:\Клипы\клипы 2011\Джиган feat. Жанна Фриске - Ты рядом (Official video).mp4
Формат : MPEG-4
Профиль формата : Base Media / Version 2
Идентификатор кодека : mp42
Размер файла : 43,1 Мбайт
Продолжительность : 3 м. 27 с.
Общий поток : 1741 Кбит/сек
Дата кодирования : UTC 2011-12-07 11:53:22
Дата пометки : UTC 2011-12-07 11:53:22
gsst : 0
gstd : 207493
gssd : BADC23A04HH1325078401256564
gshh : o-o.preferred.svo01s01.v4.lscache5.c.youtube.com

Видео
Идентификатор : 1
Формат : AVC
Формат/Информация : Advanced Video Codec
Профиль формата : High@L3.1
Параметр CABAC формата : Да
Параметр ReFrames формата : 1 кадр
Параметры GOP формата : M=1, N=60
Идентификатор кодека : avc1
Идентификатор кодека/Информация : Advanced Video Coding
Продолжительность : 3 м. 27 с.
Вид битрейта : Переменный
Битрейт : 1587 Кбит/сек
Максимальный битрейт : 3269 Кбит/сек
Ширина : 1280 пикс.
Высота : 720 пикс.
Соотношение сторон : 16:9
Режим частоты кадров : Постоянный
Частота кадров : 25,000 кадр/сек
Цветовое пространство : YUV
Подвыборка цветности : 4:2:0
Битовая глубина : 8 бит
Тип развёртки : Прогрессивная
Бит/(Пиксели*Кадры) : 0.069
Размер потока : 39,2 Мбайт (91%)
Дата пометки : UTC 2011-12-07 11:53:23

Аудио
Идентификатор : 2
Формат : AAC
Формат/Информация : Advanced Audio Codec
Профиль формата : LC
Идентификатор кодека : 40
Продолжительность : 3 м. 27 с.
Вид битрейта : Переменный
Битрейт : 152 Кбит/сек
Максимальный битрейт : 178 Кбит/сек
Каналы : 2 канала
Расположение каналов : Front: L R
Частота : 44,1 КГц
Метод сжатия : С потерями
Размер потока : 3,76 Мбайт (9%)
Заголовок : IsoMedia File Produced by Google, 5-11-2011
Дата кодирования : UTC 2011-12-07 11:53:22
Дата пометки : UTC 2011-12-07 11:53:23

Общее
Полное имя : D:\Клипы\клипы 2011\Дискотека Авария - Нано - Техно.mp4
Формат : MPEG-4
Профиль формата : Base Media / Version 2
Идентификатор кодека : mp42
Размер файла : 78,3 Мбайт
Продолжительность : 3 м. 36 с.
Общий поток : 3031 Кбит/сек
Дата кодирования : UTC 2011-10-26 16:29:05
Дата пометки : UTC 2011-10-26 16:29:05
gsst : 0
gstd : 216680
gssd : B4A7DA8E4HH1325071933275996
gshh : o-o.preferred.svo01s01.v4.lscache3.c.youtube.com

Видео
Идентификатор : 1
Формат : AVC
Формат/Информация : Advanced Video Codec
Профиль формата : High@L3.1
Параметр CABAC формата : Да
Параметр ReFrames формата : 1 кадр
Параметры GOP формата : M=1, N=60
Идентификатор кодека : avc1
Идентификатор кодека/Информация : Advanced Video Coding
Продолжительность : 3 м. 36 с.
Вид битрейта : Переменный
Битрейт : 2875 Кбит/сек
Максимальный битрейт : 9548 Кбит/сек
Ширина : 1280 пикс.
Высота : 720 пикс.
Соотношение сторон : 16:9
Режим частоты кадров : Постоянный
Частота кадров : 25,000 кадр/сек
Цветовое пространство : YUV
Подвыборка цветности : 4:2:0
Битовая глубина : 8 бит
Тип развёртки : Прогрессивная
Бит/(Пиксели*Кадры) : 0.125
Размер потока : 74,3 Мбайт (95%)
Дата пометки : UTC 2011-10-26 16:29:06

Аудио
Идентификатор : 2
Формат : AAC
Формат/Информация : Advanced Audio Codec
Профиль формата : LC
Идентификатор кодека : 40
Продолжительность : 3 м. 36 с.
Вид битрейта : Переменный
Битрейт : 151 Кбит/сек
Максимальный битрейт : 206 Кбит/сек
Каналы : 2 канала
Расположение каналов : Front: L R
Частота : 44,1 КГц
Метод сжатия : С потерями
Размер потока : 3,90 Мбайт (5%)
Заголовок : IsoMedia File Produced by Google, 5-11-2011
Дата кодирования : UTC 2011-10-26 16:29:06
Дата пометки : UTC 2011-10-26 16:29:06

Общее
Полное имя : D:\Клипы\клипы 2011\Каста - Такое чувство НОВЫЙ КЛИП (official HD).mp4
Формат : MPEG-4
Профиль формата : Base Media / Version 2
Идентификатор кодека : mp42
Размер файла : 50,7 Мбайт
Продолжительность : 3 м. 50 с.
Общий поток : 1842 Кбит/сек
Дата кодирования : UTC 2011-10-17 20:32:13
Дата пометки : UTC 2011-10-17 20:32:13
gsst : 0
gstd : 230800
gssd : B4A7DA8C4HH1325082237004289
gshh : o-o.preferred.svo01s01.v16.lscache2.c.youtube.com

Видео
Идентификатор : 1
Формат : AVC
Формат/Информация : Advanced Video Codec
Профиль формата : High@L3.1
Параметр CABAC формата : Да
Параметр ReFrames формата : 1 кадр
Параметры GOP формата : M=1, N=60
Идентификатор кодека : avc1
Идентификатор кодека/Информация : Advanced Video Coding
Продолжительность : 3 м. 50 с.
Вид битрейта : Переменный
Битрейт : 1685 Кбит/сек
Максимальный битрейт : 6447 Кбит/сек
Ширина : 1280 пикс.
Высота : 720 пикс.
Соотношение сторон : 16:9
Режим частоты кадров : Постоянный
Частота кадров : 25,000 кадр/сек
Цветовое пространство : YUV
Подвыборка цветности : 4:2:0
Битовая глубина : 8 бит
Тип развёртки : Прогрессивная
Бит/(Пиксели*Кадры) : 0.073
Размер потока : 46,4 Мбайт (91%)
Дата пометки : UTC 2011-10-17 20:32:14

Аудио
Идентификатор : 2
Формат : AAC
Формат/Информация : Advanced Audio Codec
Профиль формата : LC
Идентификатор кодека : 40
Продолжительность : 3 м. 50 с.
Вид битрейта : Переменный
Битрейт : 152 Кбит/сек
Максимальный битрейт : 220 Кбит/сек
Каналы : 2 канала
Расположение каналов : Front: L R
Частота : 44,1 КГц
Метод сжатия : С потерями
Размер потока : 4,18 Мбайт (8%)
Заголовок : IsoMedia File Produced by Google, 5-11-2011
Дата кодирования : UTC 2011-10-17 20:32:13
Дата пометки : UTC 2011-10-17 20:32:14

Общее
Полное имя : D:\Клипы\клипы 2011\МакSим - Осколки.mp4
Формат : MPEG-4
Профиль формата : Base Media / Version 2
Идентификатор кодека : mp42
Размер файла : 162 Мбайт
Продолжительность : 4 м. 6 с.
Общий поток : 5490 Кбит/сек
Дата кодирования : UTC 2011-09-28 06:50:45
Дата пометки : UTC 2011-09-28 06:50:45
gsst : 0
gstd : 246960
gssd : B4A7DA88AHH1325082626560599
gshh : o-o.preferred.svo01s01.v22.lscache3.c.youtube.com

Видео
Идентификатор : 1
Формат : AVC
Формат/Информация : Advanced Video Codec
Профиль формата : High@L4.0
Параметр CABAC формата : Да
Параметр ReFrames формата : 1 кадр
Параметры GOP формата : M=1, N=34
Идентификатор кодека : avc1
Идентификатор кодека/Информация : Advanced Video Coding
Продолжительность : 4 м. 6 с.
Вид битрейта : Переменный
Битрейт : 5334 Кбит/сек
Максимальный битрейт : 9268 Кбит/сек
Ширина : 1920 пикс.
Высота : 1080 пикс.
Соотношение сторон : 16:9
Режим частоты кадров : Постоянный
Частота кадров : 25,000 кадр/сек
Цветовое пространство : YUV
Подвыборка цветности : 4:2:0
Битовая глубина : 8 бит
Тип развёртки : Прогрессивная
Бит/(Пиксели*Кадры) : 0.103
Размер потока : 157 Мбайт (97%)
Дата пометки : UTC 2011-09-28 06:50:46

Аудио
Идентификатор : 2
Формат : AAC
Формат/Информация : Advanced Audio Codec
Профиль формата : LC
Идентификатор кодека : 40
Продолжительность : 4 м. 6 с.
Вид битрейта : Переменный
Битрейт : 151 Кбит/сек
Максимальный битрейт : 184 Кбит/сек
Каналы : 2 канала
Расположение каналов : Front: L R
Частота : 44,1 КГц
Метод сжатия : С потерями
Размер потока : 4,45 Мбайт (3%)
Заголовок : IsoMedia File Produced by Google, 5-11-2011
Дата кодирования : UTC 2011-09-28 06:50:45
Дата пометки : UTC 2011-09-28 06:50:46

Общее
Идентификатор : 255 (0xFF)
Полное имя : D:\Клипы\клипы 2011\МОБИЛЬНЫЕ БЛОНДИНКИ Новый кот клип.m2t
Формат : MPEG-TS
Размер файла : 258 Мбайт
Продолжительность : 2 м. 48 с.
Общий поток : 12,8 Мбит/сек

Видео
Идентификатор : 2064 (0x810)
Идентификатор меню : 100 (0x64)
Формат : MPEG Video
Версия формата : Version 2
Профиль формата : Main@Main
Параметр BVOP формата : Да
Параметр матрицы формата : По умолчанию
Параметры GOP формата : M=3, N=15
Идентификатор кодека : 2
Продолжительность : 2 м. 49 с.
Вид битрейта : Постоянный
Битрейт : 12,1 Мбит/сек
Ширина : 1280 пикс.
Высота : 720 пикс.
Соотношение сторон : 16:9
Частота кадров : 25,000 кадр/сек
Стандарт вещания : PAL
Цветовое пространство : YUV
Подвыборка цветности : 4:2:0
Битовая глубина : 8 бит
Тип развёртки : Прогрессивная
Метод сжатия : С потерями
Бит/(Пиксели*Кадры) : 0.524
Размер потока : 238 Мбайт (92%)

Аудио
Идентификатор : 2068 (0x814)
Идентификатор меню : 100 (0x64)
Формат : MPEG Audio
Версия формата : Version 1
Профиль формата : Layer 2
Идентификатор кодека : 3
Продолжительность : 2 м. 48 с.
Вид битрейта : Постоянный
Битрейт : 384 Кбит/сек
Каналы : 2 канала
Частота : 48,0 КГц
Метод сжатия : С потерями
Размер потока : 7,74 Мбайт (3%)

Общее
Полное имя : D:\Клипы\клипы 2011\Потап и Настя Каменских - Если вдруг тебя не станет.mp4
Формат : MPEG-4
Профиль формата : Base Media / Version 2
Идентификатор кодека : mp42
Размер файла : 35,1 Мбайт
Продолжительность : 3 м. 11 с.
Общий поток : 1537 Кбит/сек
Дата кодирования : UTC 2011-11-11 20:15:54
Дата пометки : UTC 2011-11-11 20:15:54
gsst : 0
gstd : 191355
gssd : BD075E243HH1325071743266193
gshh : tc.v11.cache3.c.youtube.com

Видео
Идентификатор : 1
Формат : AVC
Формат/Информация : Advanced Video Codec
Профиль формата : High@L3.1
Параметр CABAC формата : Да
Параметр ReFrames формата : 1 кадр
Параметры GOP формата : M=1, N=60
Идентификатор кодека : avc1
Идентификатор кодека/Информация : Advanced Video Coding
Продолжительность : 3 м. 11 с.
Вид битрейта : Переменный
Битрейт : 1383 Кбит/сек
Максимальный битрейт : 3016 Кбит/сек
Ширина : 1280 пикс.
Высота : 720 пикс.
Соотношение сторон : 16:9
Режим частоты кадров : Постоянный
Частота кадров : 25,000 кадр/сек
Цветовое пространство : YUV
Подвыборка цветности : 4:2:0
Битовая глубина : 8 бит
Тип развёртки : Прогрессивная
Бит/(Пиксели*Кадры) : 0.060
Размер потока : 31,5 Мбайт (90%)
Дата пометки : UTC 2011-11-11 20:15:54

Аудио
Идентификатор : 2
Формат : AAC
Формат/Информация : Advanced Audio Codec
Профиль формата : LC
Идентификатор кодека : 40
Продолжительность : 3 м. 11 с.
Вид битрейта : Переменный
Битрейт : 152 Кбит/сек
Максимальный битрейт : 209 Кбит/сек
Каналы : 2 канала
Расположение каналов : Front: L R
Частота : 44,1 КГц
Метод сжатия : С потерями
Размер потока : 3,47 Мбайт (10%)
Заголовок : IsoMedia File Produced by Google, 5-11-2011
Дата кодирования : UTC 2011-11-11 20:15:54
Дата пометки : UTC 2011-11-11 20:15:54

Общее
Полное имя : D:\Клипы\клипы 2011\ПРЕМЬЕРА! Dan Balan - Лишь до утра.mp4
Формат : MPEG-4
Профиль формата : Base Media / Version 2
Идентификатор кодека : mp42
Размер файла : 44,4 Мбайт
Продолжительность : 3 м. 42 с.
Общий поток : 1673 Кбит/сек
Дата кодирования : UTC 2011-10-24 22:13:51
Дата пометки : UTC 2011-10-24 22:13:51
gsst : 0
gstd : 222640
gssd : B4A7DA887HH1325072589921336
gshh : o-o.preferred.svo01s01.v19.lscache1.c.youtube.com

Видео
Идентификатор : 1
Формат : AVC
Формат/Информация : Advanced Video Codec
Профиль формата : High@L3.1
Параметр CABAC формата : Да
Параметр ReFrames формата : 1 кадр
Параметры GOP формата : M=1, N=49
Идентификатор кодека : avc1
Идентификатор кодека/Информация : Advanced Video Coding
Продолжительность : 3 м. 42 с.
Вид битрейта : Переменный
Битрейт : 1517 Кбит/сек
Максимальный битрейт : 4000 Кбит/сек
Ширина : 1280 пикс.
Высота : 720 пикс.
Соотношение сторон : 16:9
Режим частоты кадров : Постоянный
Частота кадров : 25,000 кадр/сек
Цветовое пространство : YUV
Подвыборка цветности : 4:2:0
Битовая глубина : 8 бит
Тип развёртки : Прогрессивная
Бит/(Пиксели*Кадры) : 0.066
Размер потока : 40,3 Мбайт (91%)
Дата пометки : UTC 2011-10-24 22:13:52

Аудио
Идентификатор : 2
Формат : AAC
Формат/Информация : Advanced Audio Codec
Профиль формата : LC
Идентификатор кодека : 40
Продолжительность : 3 м. 42 с.
Вид битрейта : Переменный
Битрейт : 152 Кбит/сек
Максимальный битрейт : 178 Кбит/сек
Каналы : 2 канала
Расположение каналов : Front: L R
Частота : 44,1 КГц
Метод сжатия : С потерями
Размер потока : 4,03 Мбайт (9%)
Заголовок : IsoMedia File Produced by Google, 5-11-2011
Дата кодирования : UTC 2011-10-24 22:13:51
Дата пометки : UTC 2011-10-24 22:13:52

Общее
Полное имя : D:\Клипы\клипы 2011\ПРЕМЬЕРА! Нюша - Выше.mp4
Формат : MPEG-4
Профиль формата : Base Media / Version 2
Идентификатор кодека : mp42
Размер файла : 69,2 Мбайт
Продолжительность : 3 м. 57 с.
Общий поток : 2447 Кбит/сек
Дата кодирования : UTC 2011-12-06 23:36:28
Дата пометки : UTC 2011-12-06 23:36:28
gsst : 0
gstd : 237400
gssd : BADC23A0CHH1325078537572302
gshh : o-o.preferred.svo01s01.v12.lscache6.c.youtube.com

Видео
Идентификатор : 1
Формат : AVC
Формат/Информация : Advanced Video Codec
Профиль формата : High@L3.1
Параметр CABAC формата : Да
Параметр ReFrames формата : 1 кадр
Параметры GOP формата : M=1, N=60
Идентификатор кодека : avc1
Идентификатор кодека/Информация : Advanced Video Coding
Продолжительность : 3 м. 57 с.
Вид битрейта : Переменный
Битрейт : 2293 Кбит/сек
Максимальный битрейт : 5574 Кбит/сек
Ширина : 1280 пикс.
Высота : 720 пикс.
Соотношение сторон : 16:9
Режим частоты кадров : Постоянный
Частота кадров : 25,000 кадр/сек
Цветовое пространство : YUV
Подвыборка цветности : 4:2:0
Битовая глубина : 8 бит
Тип развёртки : Прогрессивная
Бит/(Пиксели*Кадры) : 0.100
Размер потока : 64,9 Мбайт (94%)
Дата пометки : UTC 2011-12-06 23:36:28

Аудио
Идентификатор : 2
Формат : AAC
Формат/Информация : Advanced Audio Codec
Профиль формата : LC
Идентификатор кодека : 40
Продолжительность : 3 м. 57 с.
Вид битрейта : Переменный
Битрейт : 151 Кбит/сек
Максимальный битрейт : 191 Кбит/сек
Каналы : 2 канала
Расположение каналов : Front: L R
Частота : 44,1 КГц
Метод сжатия : С потерями
Размер потока : 4,28 Мбайт (6%)
Заголовок : IsoMedia File Produced by Google, 5-11-2011
Дата кодирования : UTC 2011-12-06 23:36:28
Дата пометки : UTC 2011-12-06 23:36:28

Общее
Полное имя : D:\Клипы\клипы 2011\Пропаганда - Я Такая [OFFICIAL].mp4
Формат : MPEG-4
Профиль формата : Base Media / Version 2
Идентификатор кодека : mp42
Размер файла : 49,7 Мбайт
Продолжительность : 3 м. 13 с.
Общий поток : 2156 Кбит/сек
Дата кодирования : UTC 2011-06-14 10:00:56
Дата пометки : UTC 2011-06-14 10:00:56
gsst : 0
gstd : 193520
gssd : B4A7DA881HH1325082727511621
gshh : o-o.preferred.svo01s01.v1.lscache1.c.youtube.com

Видео
Идентификатор : 1
Формат : AVC
Формат/Информация : Advanced Video Codec
Профиль формата : High@L3.1
Параметр CABAC формата : Да
Параметр ReFrames формата : 1 кадр
Параметры GOP формата : M=1, N=59
Идентификатор кодека : avc1
Идентификатор кодека/Информация : Advanced Video Coding
Продолжительность : 3 м. 13 с.
Вид битрейта : Переменный
Битрейт : 2010 Кбит/сек
Максимальный битрейт : 5265 Кбит/сек
Ширина : 1280 пикс.
Высота : 720 пикс.
Соотношение сторон : 16:9
Режим частоты кадров : Постоянный
Частота кадров : 25,000 кадр/сек
Цветовое пространство : YUV
Подвыборка цветности : 4:2:0
Битовая глубина : 8 бит
Тип развёртки : Прогрессивная
Бит/(Пиксели*Кадры) : 0.087
Размер потока : 46,4 Мбайт (93%)
Дата пометки : UTC 2011-06-14 10:00:57

Аудио
Идентификатор : 2
Формат : AAC
Формат/Информация : Advanced Audio Codec
Профиль формата : LC
Идентификатор кодека : 40
Продолжительность : 3 м. 13 с.
Вид битрейта : Переменный
Битрейт : 144 Кбит/сек
Максимальный битрейт : 170 Кбит/сек
Каналы : 2 канала
Расположение каналов : Front: L R
Частота : 44,1 КГц
Метод сжатия : С потерями
Размер потока : 3,26 Мбайт (7%)
Заголовок : IsoMedia File Produced by Google, 5-11-2011
Дата кодирования : UTC 2011-06-14 10:00:57
Дата пометки : UTC 2011-06-14 10:00:57

Общее
Идентификатор : 255 (0xFF)
Полное имя : D:\Клипы\клипы 2011\Сати Казанова Буэнос - Айрес клип.m2t
Формат : MPEG-TS
Размер файла : 251 Мбайт
Продолжительность : 3 м. 49 с.
Общий поток : 9154 Кбит/сек

Видео
Идентификатор : 2064 (0x810)
Идентификатор меню : 100 (0x64)
Формат : MPEG Video
Версия формата : Version 2
Профиль формата : Main@Main
Параметр BVOP формата : Да
Параметр матрицы формата : По умолчанию
Параметры GOP формата : M=3, N=15
Идентификатор кодека : 2
Продолжительность : 3 м. 49 с.
Вид битрейта : Постоянный
Битрейт : 8490 Кбит/сек
Ширина : 1920 пикс.
Высота : 1080 пикс.
Соотношение сторон : 16:9
Частота кадров : 25,000 кадр/сек
Стандарт вещания : PAL
Цветовое пространство : YUV
Подвыборка цветности : 4:2:0
Битовая глубина : 8 бит
Тип развёртки : Прогрессивная
Метод сжатия : С потерями
Бит/(Пиксели*Кадры) : 0.164
Размер потока : 228 Мбайт (91%)

Аудио
Идентификатор : 2068 (0x814)
Идентификатор меню : 100 (0x64)
Формат : MPEG Audio
Версия формата : Version 1
Профиль формата : Layer 2
Идентификатор кодека : 3
Продолжительность : 3 м. 49 с.
Вид битрейта : Постоянный
Битрейт : 384 Кбит/сек
Каналы : 2 канала
Частота : 48,0 КГц
Метод сжатия : С потерями
Размер потока : 10,5 Мбайт (4%)

Общее
Идентификатор : 255 (0xFF)
Полное имя : D:\Клипы\клипы 2011\Света Пятый элемент (официальное видео).m2t
Формат : MPEG-TS
Размер файла : 209 Мбайт
Продолжительность : 3 м. 21 с.
Общий поток : 8690 Кбит/сек

Видео
Идентификатор : 2064 (0x810)
Идентификатор меню : 100 (0x64)
Формат : MPEG Video
Версия формата : Version 2
Профиль формата : Main@Main
Параметр BVOP формата : Да
Параметр матрицы формата : По умолчанию
Параметры GOP формата : M=3, N=15
Идентификатор кодека : 2
Продолжительность : 3 м. 21 с.
Вид битрейта : Постоянный
Битрейт : 8035 Кбит/сек
Ширина : 1920 пикс.
Высота : 1080 пикс.
Соотношение сторон : 16:9
Частота кадров : 25,000 кадр/сек
Стандарт вещания : PAL
Цветовое пространство : YUV
Подвыборка цветности : 4:2:0
Битовая глубина : 8 бит
Тип развёртки : Прогрессивная
Метод сжатия : С потерями
Бит/(Пиксели*Кадры) : 0.155
Размер потока : 189 Мбайт (91%)

Аудио
Идентификатор : 2068 (0x814)
Идентификатор меню : 100 (0x64)
Формат : MPEG Audio
Версия формата : Version 1
Профиль формата : Layer 2
Идентификатор кодека : 3
Продолжительность : 3 м. 21 с.
Вид битрейта : Постоянный
Битрейт : 384 Кбит/сек
Каналы : 2 канала
Частота : 48,0 КГц
Метод сжатия : С потерями
Размер потока : 9,23 Мбайт (4%)

Общее
Полное имя : D:\Клипы\клипы 2011\Юля Савичева feat. T9 - Корабли Julja Savicheva feat. T9 - Ships.mp4
Формат : MPEG-4
Профиль формата : Base Media / Version 2
Идентификатор кодека : mp42
Размер файла : 63,9 Мбайт
Продолжительность : 4 м. 22 с.
Общий поток : 2038 Кбит/сек
Дата кодирования : UTC 2010-02-20 07:37:15
Дата пометки : UTC 2010-02-20 07:37:15
gsst : 0
gstd : 263500
gssd : B4A7DA8CCHH1325085235666467
gshh : o-o.preferred.svo01s01.v12.lscache2.c.youtube.com

Видео
Идентификатор : 2
Формат : AVC
Формат/Информация : Advanced Video Codec
Профиль формата : High@L3.1
Параметр CABAC формата : Да
Параметр ReFrames формата : 3 кадра
Параметры GOP формата : M=1, N=60
Идентификатор кодека : avc1
Идентификатор кодека/Информация : Advanced Video Coding
Продолжительность : 4 м. 22 с.
Вид битрейта : Переменный
Битрейт : 1911 Кбит/сек
Максимальный битрейт : 2884 Кбит/сек
Ширина : 1280 пикс.
Высота : 708 пикс.
Соотношение сторон : 16:9
Режим частоты кадров : Постоянный
Частота кадров : 29,970 кадр/сек
Цветовое пространство : YUV
Подвыборка цветности : 4:2:0
Битовая глубина : 8 бит
Тип развёртки : Прогрессивная
Бит/(Пиксели*Кадры) : 0.070
Размер потока : 59,9 Мбайт (94%)
Заголовок : (C) 2007 Google Inc. v08.13.2007.
Дата кодирования : UTC 2010-02-20 07:37:15
Дата пометки : UTC 2010-02-20 07:37:17

Аудио
Идентификатор : 1
Формат : AAC
Формат/Информация : Advanced Audio Codec
Профиль формата : LC
Идентификатор кодека : 40
Продолжительность : 4 м. 22 с.
Вид битрейта : Переменный
Битрейт : 124 Кбит/сек
Максимальный битрейт : 195 Кбит/сек
Каналы : 2 канала
Расположение каналов : Front: L R
Частота : 44,1 КГц
Метод сжатия : С потерями
Размер потока : 3,89 Мбайт (6%)
Заголовок : (C) 2007 Google Inc. v08.13.2007.
Дата кодирования : UTC 2010-02-20 07:37:15
Дата пометки : UTC 2010-02-20 07:37:17
pb.wtf



Скачать клипы-2011 через торрент http://i29.fastpic.ru/big/2011/1228/82/18db342a38a7b620382897a82d09dc82.png Скачать, смотреть онлайн клипы-2011 [2011 г., Pop,Rap, HDTV] бесплантно в хорошем качестве Год выпуска: 2011Страна: Россия Жанр: Pop,RapПродолжительность: 01:26:18Перевод: Не требуется[font="Georgia"]1)MMDANCE - Новогодняя (Новый ... 10 10 3
Info! Золотая раздача, скачанное не засчитывается.
Торрент: Зарегистрирован [2011-12-28 16:38] · скачан: 843 раз
Статус: √ проверено
Размер: 2.88 GB
Как cкачать? Как скачать клипы-2011 через торрент | UTorrent

% Раздел Тема Автор DL S | L
Паки русских роликов [ 20.84 GB ] Утипути... Пак из 24-х клипов... [2011 All sex teen Anal blowjob oral SATRip] Magnat Скачать
1 | 4
Клипы [ 77.93 GB ] Сборник Клипов FullHD / PiratVe4erinka [2011 РокПопТранс HD] lug30 Скачать
1 | 2
Клипы [ 1.56 GB ] Технология - клипы [2014 Synthpop Pop DVDRip Оригинал] lug30 Скачать
1 | 0
Клипы [ 12.59 GB ] Клипы Robbie Williams :Видео хиты / Robbie Williams - Videography [1996-2011 Pop rock soft rock dance DVD] lug30 Скачать
1 | 0
Паки русских роликов [ 25.55 GB ] Люда Людочка Людмила.. [2011 All Sex Oral Anal DP Teen SiteRip] лисяра Скачать
1 | 0
Клипы [ 13.67 GB ] Eminem - Видеоклипы [1999-2011 Rap Hip-Hop DVD HDTVRip BDRip] killermax2013 Скачать
1 | 0
Клипы [ 2.73 GB ] Сборник клипов A-HA / A-ha. VideoCollection 1984-2010 Vol.1Vol.2 [2011 Новая волна синти-поп поп-рок видеоклипы DVDRip] lug30 Скачать
1 | 0


Последний раз редактировалось: chenya28 (2012-01-27 17:25), всего редактировалось 1 раз

28-11-2019 20:33  

Отключить всю рекламу на сайте

11-01-2012 20:10 клипы-2011 Скачать торрент  

Спасибо отличный сборникpb.wtf



    Дорогой пользователь! Огромная просьба, поблагодарите релизера, оцените раздачу и оставьте свои комментарий, если Вы скачали клипы-2011 через торрент бесплатно!
    Комментировать посты могут только пользователи прошедшие не сложную регистрацию
    Показать сообщения:    

    клипы-2011 через торрент
    Скачать бесплатно клипы-2011
    клипы-2011 скачать торрент
    клипы-2011 смотреть онлайн
    Cкачать фильм клипы-2011 бесплатно
    клипы-2011 скачать торрент в хорошем качестве
    клипы-2011 смотреть онлайн бесплатно в хорошем качестве


    Вы не можете начинать темы
    Вы не можете отвечать на сообщения
    Вы не можете редактировать свои сообщения
    Вы не можете удалять свои сообщения
    Вы не можете голосовать в опросах
    Вы не можете прикреплять файлы к сообщениям
    Вы можете скачивать файлы