2 сезон

iTunes

MVO

1

2 сезон

iTunes

iTunes

1 сезон

RePack

30

Новинка

ВАЖНО

ИГРА 18+

pack

RePack

MK11
pack

Легкие деньги

RePack

jed

RePack

fifa19

RePack

RDR2

RePack

NEED FOR SPEED™ PAYBACK

4 сезон

9 сезон

Бесстыжие 9 сезон

Все сериалы

все сериалы на PB.wtf

RePack

FAR CRY 5

Anonymous, добрый день, мы не успеваем собрать деньги на оплату серверов за декабрь и январь, помогите нам пожалуйста в это трудное время. В качестве благодарности мы отключим Вам всю рекламу на сайте (укажите свой ник в строку Ваше имя)!

×
  
Magnet ссылка

Кто кому кто (Евгений Шишкин) [2011 г., комедия, SATRip] pb.wtf

Кто кому кто через торрент pb.wtf

Размер: 1.37 GB | Добавлен: 9 лет назад | Торрент скачан:144 раза
Скачать  

31-12-2011 06:06 Кто кому кто Скачать торрент  

Кто кому кто Год выпуска: 2011
Страна: Украина
Жанр: комедия
Продолжительность: 01:30:06
Перевод: Не требуется

Режиссер: Евгений Шишкин
Продюссер: -
Сценарий: Евгений Шишкин




В ролях: Алена Узлюк, Алена Узлюк, Петр Миронов, Петр Миронов, Виктор Андриенко, Виктор Андриенко, Игорь Письменный, Игорь Письменный, Алёна Колесниченко, Алёна Колесниченко, Александр Гетманский, Александр Гетманский, Анжелика Горб, Анжелика Горб, Тамара Яценко, Тамара Яценко, Владимир Заднепровский, Владимир Заднепровский

Описание: Эта невероятная история произошла в канун Нового года, 31 декабря, в день рождения главной героини Милы. Ее жених неожиданно ушел к другой. Также в этот день Мила узнала, что у нее есть брат, невеста которого — та же самая девушка. И еще в новогоднюю ночь друг детства предложил Миле руку и сердце, а его отец по странному стечению обстоятельств сделал аналогичное предложение матери Милы. Ну и, наконец, Мила встретилась со своим родным отцом, который спустя 25 лет решил познакомиться с ней и помириться с бывшей женой. Вы, конечно же, ничего не поняли? Тогда посмотрите эту музыкальную комедию положений и непременно узнаете, кто кому кто.




Качество: SATRip
Формат: AVI
Видео кодек: XviD
Аудио кодек: MP3
Видео: 720x400 (1.80:1), 25 fps, XviD MPEG-4 ~1973 kbps avg, 0.27 bit/pixel
Аудио: 48 kHz, MPEG Layer 3, 1 ch, ~192.00 kbps avg
Общее
Полное имя : D:\Кто кому кто.avi
Формат : AVI
Формат/Информация : Audio Video Interleave
Размер файла : 1,37 Гбайт
Продолжительность : 1 ч. 30 м.
Общий поток : 2172 Кбит/сек
Программа кодирования : VirtualDubMod 1.5.4.1 (build 2178/release)
Библиотека кодирования : VirtualDubMod build 2178/release

Видео
Идентификатор : 0
Формат : MPEG-4 Visual
Профиль формата : Advanced Simple@L5
Параметр BVOP формата : 1
Параметр QPel формата : Нет
Параметр GMC формата : Без точки перехода
Параметр матрицы формата : Выборочная
Идентификатор кодека : XVID
Идентификатор кодека/Подсказка : XviD
Продолжительность : 1 ч. 30 м.
Битрейт : 1973 Кбит/сек
Ширина : 720 пикселей
Высота : 400 пикселей
Соотношение сторон : 16:9
Частота кадров : 25,000 кадров/сек
Цветовое пространство : YUV
Субдискретизация насыщенности : 4:2:0
Битовая глубина : 8 бит
Тип развёртки : Прогрессивная
Метод сжатия : С потерями
Бит/(Пиксели*Кадры) : 0.274
Размер потока : 1,24 Гбайт (91%)
Библиотека кодирования : XviD 64

Аудио
Идентификатор : 1
Формат : MPEG Audio
Версия формата : Version 1
Профиль формата : Layer 3
Идентификатор кодека : 55
Идентификатор кодека/Подсказка : MP3
Продолжительность : 1 ч. 30 м.
Вид битрейта : Постоянный
Битрейт : 192 Кбит/сек
Каналы : 1 канал
Частота : 48,0 КГц
Метод сжатия : С потерями
Размер потока : 124 Мбайт (9%)
Выравнивание : Соединение по промежуткам
Продолжительность промежутка : 80 мс. (2,00 видеокадра)
Время предзагрузки промежутка : 504 мс.
Библиотека кодирования : LAME3.98r
Настройки программы : -m m -V 4 -q 2 -lowpass 20.5 -b 192


pb.wtf



Скачать Кто кому кто через торрент http://i27.fastpic.ru/big/2011/1230/75/453bb5098171ee68c0ebd1fd73b37e75.jpg Скачать фильм Кто кому кто через торрент бесплантно в хорошем качестве Описание: Эта невероятная история произошла в канун Нового года, 31 декабря, в день рождения главной героини Милы. Ее жених неожиданно ушел ... 4.3 10 3
Info! Золотая раздача, скачанное не засчитывается.
Торрент: Зарегистрирован [2011-12-31 06:06] · скачан: 144 раз
Статус: √ проверено
Размер: 1.37 GB
Как cкачать? Как скачать Кто кому кто через торрент | UTorrent

28-11-2019 20:33  

Отключить всю рекламу на сайте

07-01-2012 17:47 Кто кому кто Скачать торрент  

не хотелось бы ни кого обижать, но фильм явно не доработан...
рассинхронизация звука с изображением...pb.wtf



    Дорогой пользователь! Огромная просьба, поблагодарите релизера, оцените раздачу и оставьте свои комментарий, если Вы скачали Кто кому кто через торрент бесплатно! Внесите свою лепту в развитие PiratBit!
    Комментировать посты могут только пользователи прошедшие не сложную регистрацию
    Показать сообщения:    

    Кто кому кто через торрент
    Скачать бесплатно Кто кому кто
    Кто кому кто скачать торрент
    Кто кому кто смотреть онлайн
    Cкачать фильм Кто кому кто бесплатно
    Кто кому кто скачать торрент в хорошем качестве
    Кто кому кто смотреть онлайн бесплатно в хорошем качестве


    Вы не можете начинать темы
    Вы не можете отвечать на сообщения
    Вы не можете редактировать свои сообщения
    Вы не можете удалять свои сообщения
    Вы не можете голосовать в опросах
    Вы не можете прикреплять файлы к сообщениям
    Вы можете скачивать файлы