1 сезон

1 сезон

iTunes

1

КиноПоиск HD

Кинопоиск HD

iTunes

13

1 сезон

RePack

30

Ultimate

ВАЖНО

ИГРА 18+

pack

RePack

MK11
pack

Легкие деньги

RePack

jed

RePack

fifa19

RePack

RDR2

RePack

NEED FOR SPEED™ PAYBACK

4 сезон

9 сезон

Бесстыжие 9 сезон

Все сериалы

все сериалы на PB.wtf

RePack

FAR CRY 5
  
Magnet ссылка

Пришелец / Impostor (Гари Фледер / Gary Fleder) [2001, Фантастика, триллер, DVDRip] dub pb.wtf

Пришелец через торрент pb.wtf

Размер: 1.46 GB | Добавлен: 9 лет 3 мес. назад | Торрент скачан:234 раза
Скачать  

31-12-2011 07:02 Пришелец Скачать торрент  

Пришелец / Impostor Год выпуска: 2001
Страна: США
Жанр: Фантастика, триллер
Продолжительность: 01:38:11.640 (147291 frames)
Перевод: Профессиональный (полное дублирование)
Русские субтитры: нет



Режиссер: Гари Фледер / Gary Fleder

В ролях: Гари Синиз /Gary Sinise, Мэдлин Стоу /Madeleine Stowe, Винсент Д'Онофрио /Vincent D'Onofrio, Шэлоуб Тони /Tony Shalhoub, Тим Гини /Tim Guinee, Элизабет Пенья /Elizabeth Pena, Гэри Дурдэн /Gary Dourdan, Линдсэй Краузе /Lindsay Crouse, Мекхи Файфер /Mekhi Phifer, Джон Папсидера /John Papsidera.

Описание: 2074 год. Земляне уже много лет воюют с пришельцами. И вот, наконец-то, появляется надежда на победу - последнее изобретение ученого Спенсера Олэма (Гэри Синиз) должно спасти планету... Однако вместо того, чтобы боготворить своего спасителя, люди обвиняют Спенсера в том, что он сам - шпион-инопланетянин, засланный на Землю... И теперь ему предстоит доказать всему миру, что он человек, но проблема в том, что он и сам начинает сомневаться в этом...


Качество: DVDRip
Формат: AVI
Видео кодек: XviD
Аудио кодек: AC3
Видео: 720x384 (1.88:1), 25 fps, XviD build 50 ~1667 kbps avg, 0.24 bit/pixel
Аудио: 48 kHz, AC3 Dolby Digital, 3/2 (L,C,R,l,r) + LFE ch, ~448.00 kbps avg
General
Complete name : E:\001 МОИ РАЗДАЧИ\Пришелец 1,46\prishelec_1.46_.avi
Format : AVI
Format/Info : Audio Video Interleave
File size : 1.46 GiB
Duration : 1h 38mn
Overall bit rate : 2 126 Kbps
Writing application : VirtualDubMod 1.5.10.2 (build 2540/release)
Writing library : VirtualDubMod build 2540/release
Video
Format : MPEG-4 Visual
Format profile : Streaming Video@L1
Format settings, BVOP : Yes
Format settings, QPel : No
Format settings, GMC : No warppoints
Format settings, Matrix : Custom
Codec ID : XVID
Codec ID/Hint : XviD
Duration : 1h 38mn
Bit rate : 1 668 Kbps
Width : 720 pixels
Height : 384 pixels
Display aspect ratio : 1.875
Frame rate : 25.000 fps
Resolution : 24 bits
Colorimetry : 4:2:0
Scan type : Progressive
Bits/(Pixel*Frame) : 0.241
Stream size : 1.14 GiB (78%)
Writing library : XviD 50
Audio
Format : AC-3
Format/Info : Audio Coding 3
Codec ID : 2000
Duration : 1h 38mn
Bit rate mode : Constant
Bit rate : 448 Kbps
Channel(s) : 6 channels
Channel positions : Front: L C R, Surround: L R, LFE
Sampling rate : 48.0 KHz
Stream size : 315 MiB (21%)
Alignment : Split accross interleaves
Interleave, duration : 40 ms (1.00 video frame)
Interleave, preload duration : 500 ms
pb.wtf



Скачать Пришелец через торрент http://i31.fastpic.ru/big/2011/1123/ca/0dddc4e3237c741a32e1e1ec63d2bfca.jpg Скачать фильм Пришелец через торрент бесплантно в хорошем качестве Описание: 2074 год. Земляне уже много лет воюют с пришельцами. И вот, наконец-то, появляется надежда на победу - последнее изобретение ... 8 10 1
Info! Золотая раздача, скачанное не засчитывается.
Торрент: Зарегистрирован [2011-12-31 07:02] · скачан: 234 раз
Статус: √ проверено
Размер: 1.46 GB
Как cкачать? Как скачать Пришелец через торрент | UTorrent

% Раздел Тема Автор DL S | L
Фильмы 2001-2005 [ 745 MB ] Пришелец / Impostor [2001 DVDRip] dub -=Cherry=- Скачать
1 | 0

28-11-2019 20:33  

Отключить всю рекламу на сайте

31-12-2011 09:48 Пришелец Скачать торрент  

Фильм очень интересный!pb.wtf



    Дорогой пользователь! Огромная просьба, поблагодарите релизера, оцените раздачу и оставьте свои комментарий, если Вы скачали Пришелец через торрент бесплатно! Внесите свою лепту в развитие PiratBit!
    Комментировать посты могут только пользователи прошедшие не сложную регистрацию
    Показать сообщения:    

    Пришелец через торрент
    Скачать бесплатно Пришелец
    Пришелец скачать торрент
    Пришелец смотреть онлайн
    Cкачать фильм Пришелец бесплатно
    Пришелец скачать торрент в хорошем качестве
    Пришелец смотреть онлайн бесплатно в хорошем качестве


    Вы не можете начинать темы
    Вы не можете отвечать на сообщения
    Вы не можете редактировать свои сообщения
    Вы не можете удалять свои сообщения
    Вы не можете голосовать в опросах
    Вы не можете прикреплять файлы к сообщениям
    Вы можете скачивать файлы