Ссылка на приватное зеркало нашего сайта всего за 1$. Внимание количество ограничено!!!

2 сезон

iTunes

1 сезон

1

2 сезон

2 сезон

iTunes

1 сезон

RePack

30

Ultimate

ВАЖНО

ИГРА 18+

pack

RePack

MK11
pack

Забери бонус

RePack

jed

!!Акция!!

Alien_Rage

RePack

fifa19

RePack

Assassins Creed: Odyssey

RePack

NEED FOR SPEED™ PAYBACK

4 сезон

9 сезон

Бесстыжие 9 сезон

Все сериалы

все сериалы на PB.wtf

RePack

FAR CRY 5
  

Пятое измерение / Push (Пол МакГиган / Paul McGuigan) [2009 г., фантастика, боевик, триллер, драма, Blu-Ray] pb.wtf

Пятое измерение через торрент pb.wtf

Размер: 22.67 GB | Добавлен: 8 лет 11 мес. назад | Торрент скачан:206 раз
Скачать  

01-01-2012 11:17 Пятое измерение Скачать торрент  

Пятое измерение / Push

Год выпуска: 2009
Страна: США, Канада, Великобритания
Жанр: фантастика, боевик, триллер, драма
Продолжительность: 01:51:20
Перевод: Профессиональный (полное дублирование)

Режиссер: Пол МакГиган / Paul McGuigan

В ролях: Крис Эванс, Дакота Фаннинг, Джимон Хунсу, Камилла Белль, Джоэль Гретш, Роберт Тсонос, Брэндон Перлман, Нил Джексон, Колин Форд, Кай Чунг Люн

Описание: Ник, американский эмигрант, обладает способностью к телекинезу. Он скрывается в Гонконге от могущественной организации, которая хочет эксплуатировать его дар в своих целях. Вскоре молодой человек встречает свою бывшую возлюбленную и знакомится с девочкой Кэсси, способной предсказывать будущее. Она видит, что только вместе они смогут выжить и нарушить планы зловещей корпорации…

Качество: Blu-Ray
Формат: m2ts
Видео кодек: AVC
Аудио кодек: DTS-HD
Видео: MPEG-4 AVC Video 19918 kbps 1080p / 24 fps / 16:9 / High Profile 4.1
Аудио: Русский DTS-HD Master Audio 7.1 / 48 kHz / 2672 kbps / 16-bit (DTS Core: 5.1 / 48 kHz / 1509 kbps / 16-bit); Английский DTS-HD Master Audio 5.1 / 48 kHz / 2311 kbps / 16-bit (DTS Core: 5.1 / 48 kHz / 1509 kbps / 16-bit)
Субтитры: Русские, Украинские.
Disc Title: PUSH
Disc Size: 24 345 039 166 bytes
Protection: AACS
BD-Java: No
BDInfo: 0.5.2

Notes:

BDINFO HOME AND REPORTS SUBMISSION:
Cinema Squid
http://www.cinemasquid.com/Tools.aspx

INCLUDES FORUMS REPORT FOR:
Unofficial Blu-ray Audio and Video Specifications Thread
http://www.avsforum.com/avs-vb/showthread.php?t=760714
http://forum.blu-ray.com/showthread.php?t=3338

********************
PLAYLIST: 00003.MPLS
********************

<--- BEGIN FORUMS PASTE --->
Код:
Total Video
Title Codec Length Movie Size Disc Size Bitrate Bitrate Main Audio Track Secondary Audio Track
----- ------ ------- -------------- -------------- ------- ------- ------------------ ---------------------
00003.MPLS AVC 1:51:20 22 193 965 056 24 345 039 166 26,58 19,92 DTS-HD Master 7.1 2672Kbps (48kHz/16-bit)
Код:
DISC INFO:

Disc Title: PUSH
Disc Size: 24 345 039 166 bytes
Protection: AACS
BD-Java: No
BDInfo: 0.5.2

PLAYLIST REPORT:

Name: 00003.MPLS
Size: 22 193 965 056 bytes
Length: 1:51:20 (h:m:s)
Total Bitrate: 26,58 Mbps
Description:

VIDEO:

Codec Bitrate Description
----- ------- -----------
MPEG-4 AVC Video 19918 kbps 1080p / 24 fps / 16:9 / High Profile 4.1

AUDIO:

Codec Language Bitrate Description
----- -------- ------- -----------
DTS-HD Master Audio Russian 2672 kbps 7.1 / 48 kHz / 2672 kbps / 16-bit (DTS Core: 5.1 / 48 kHz / 1509 kbps / 16-bit)
DTS-HD Master Audio English 2311 kbps 5.1 / 48 kHz / 2311 kbps / 16-bit (DTS Core: 5.1 / 48 kHz / 1509 kbps / 16-bit)

SUBTITLES:

Codec Language Bitrate Description
----- -------- ------- -----------
Presentation Graphics Russian 21,215 kbps
Presentation Graphics Ukrainian 17,660 kbps

FILES:

Name Time In Length Size Total Bitrate
---- ------- ------ ---- -------------
00016.M2TS 0:00:00.000 1:51:20.000 22 193 965 056 26 580

CHAPTERS:

Number Time In Length Avg Video Rate Max 1-Sec Rate Max 1-Sec Time Max 5-Sec Rate Max 5-Sec Time Max 10Sec Rate Max 10Sec Time Avg Frame Size Max Frame Size Max Frame Time
------ ------- ------ -------------- -------------- -------------- -------------- -------------- -------------- -------------- -------------- -------------- --------------
1 0:00:00.000 0:07:35.625 18 492 kbps 42 807 kbps 00:03:48.583 31 630 kbps 00:03:52.750 30 280 kbps 00:03:48.374 96 302 bytes 335 905 bytes 00:03:48.708
2 0:07:35.625 0:07:40.166 20 448 kbps 40 916 kbps 00:12:44.916 34 229 kbps 00:12:20.125 32 176 kbps 00:12:16.708 106 501 bytes 304 276 bytes 00:10:31.791
3 0:15:15.791 0:06:39.458 22 640 kbps 45 394 kbps 00:18:12.750 31 035 kbps 00:18:58.875 29 383 kbps 00:18:53.541 117 919 bytes 411 309 bytes 00:20:14.958
4 0:21:55.250 0:07:00.416 21 641 kbps 36 339 kbps 00:26:02.083 29 703 kbps 00:22:36.750 27 767 kbps 00:25:05.333 112 713 bytes 300 354 bytes 00:22:53.375
5 0:28:55.666 0:04:58.416 24 268 kbps 43 176 kbps 00:30:02.166 34 332 kbps 00:30:01.291 31 146 kbps 00:29:55.208 126 393 bytes 317 735 bytes 00:29:55.666
6 0:33:54.083 0:06:32.666 18 567 kbps 46 007 kbps 00:34:01.874 36 755 kbps 00:33:54.083 35 953 kbps 00:33:54.083 96 702 bytes 309 418 bytes 00:39:46.125
7 0:40:26.750 0:06:34.666 20 246 kbps 46 902 kbps 00:43:29.625 37 135 kbps 00:43:28.833 29 764 kbps 00:43:06.000 105 448 bytes 370 797 bytes 00:43:29.250
8 0:47:01.416 0:07:10.458 19 626 kbps 36 193 kbps 00:48:01.750 25 960 kbps 00:47:59.916 23 898 kbps 00:47:55.666 102 217 bytes 323 821 bytes 00:53:51.000
9 0:54:11.875 0:09:04.791 19 812 kbps 37 149 kbps 01:00:13.000 30 291 kbps 01:01:22.250 26 420 kbps 00:59:56.208 103 189 bytes 298 634 bytes 01:02:17.083
10 1:03:16.666 0:06:53.708 20 766 kbps 37 816 kbps 01:06:11.875 31 605 kbps 01:06:07.750 29 405 kbps 01:06:07.583 108 158 bytes 342 808 bytes 01:04:54.208
11 1:10:10.375 0:06:32.166 21 747 kbps 36 597 kbps 01:16:17.208 33 642 kbps 01:16:06.000 32 185 kbps 01:16:08.208 113 264 bytes 299 451 bytes 01:12:46.500
12 1:16:42.541 0:06:26.375 21 256 kbps 40 656 kbps 01:22:08.041 32 080 kbps 01:19:44.583 27 308 kbps 01:19:44.333 110 710 bytes 327 636 bytes 01:22:08.625
13 1:23:08.916 0:06:49.041 21 009 kbps 42 067 kbps 01:24:03.833 31 767 kbps 01:24:00.333 26 098 kbps 01:23:55.416 109 424 bytes 287 562 bytes 01:29:31.416
14 1:29:57.958 0:02:25.958 14 226 kbps 21 719 kbps 01:30:26.125 17 968 kbps 01:32:13.041 17 282 kbps 01:32:12.958 74 092 bytes 270 340 bytes 01:32:22.958
15 1:32:23.916 0:04:03.375 19 892 kbps 44 855 kbps 01:35:33.125 34 600 kbps 01:36:21.583 30 149 kbps 01:36:16.500 103 602 bytes 333 599 bytes 01:35:32.875
16 1:36:27.291 0:06:46.125 23 100 kbps 45 423 kbps 01:38:48.708 35 850 kbps 01:38:47.083 33 063 kbps 01:38:46.958 120 315 bytes 322 038 bytes 01:39:00.375
17 1:43:13.416 0:03:13.208 18 817 kbps 34 191 kbps 01:45:31.958 27 057 kbps 01:46:13.833 24 433 kbps 01:45:31.708 98 007 bytes 342 634 bytes 01:46:16.875
18 1:46:26.625 0:04:53.375 4 953 kbps 10 849 kbps 01:49:52.750 9 875 kbps 01:49:51.916 9 374 kbps 01:49:50.500 25 799 bytes 152 986 bytes 01:49:53.625

STREAM DIAGNOSTICS:

File PID Type Codec Language Seconds Bitrate Bytes Packets
---- --- ---- ----- -------- -------------- -------------- ------------- -----
00016.M2TS 4113 (0x1011) 0x1B AVC 6679,875 19 919 16 631 902 950 90 484 669
00016.M2TS 4352 (0x1100) 0x86 DTS-HD MA rus (Russian) 6679,875 2 672 2 231 008 700 13 165 987
00016.M2TS 4353 (0x1101) 0x86 DTS-HD MA eng (English) 6679,875 2 311 1 929 461 920 11 531 054
00016.M2TS 4608 (0x1200) 0x90 PGS rus (Russian) 6679,875 21 17 714 259 102 496
00016.M2TS 4609 (0x1201) 0x90 PGS ukr (Ukrainian) 6679,875 18 14 745 804 85 540
<---- END FORUMS PASTE ---->

QUICK SUMMARY:

Disc Title: PUSH
Disc Size: 24 345 039 166 bytes
Protection: AACS
BD-Java: No
Playlist: 00003.MPLS
Size: 22 193 965 056 bytes
Length: 1:51:20
Total Bitrate: 26,58 Mbps
Video: MPEG-4 AVC Video / 19918 kbps / 1080p / 24 fps / 16:9 / High Profile 4.1
Audio: Russian / DTS-HD Master Audio / 7.1 / 48 kHz / 2672 kbps / 16-bit (DTS Core: 5.1 / 48 kHz / 1509 kbps / 16-bit)
Audio: English / DTS-HD Master Audio / 5.1 / 48 kHz / 2311 kbps / 16-bit (DTS Core: 5.1 / 48 kHz / 1509 kbps / 16-bit)
Subtitle: Russian / 21,215 kbps
Subtitle: Ukrainian / 17,660 kbps

********************
PLAYLIST: 00231.MPLS
********************

<--- BEGIN FORUMS PASTE --->
Код:
Total Video
Title Codec Length Movie Size Disc Size Bitrate Bitrate Main Audio Track Secondary Audio Track
----- ------ ------- -------------- -------------- ------- ------- ------------------ ---------------------
00231.MPLS MPEG-2 0:09:41 526 872 576 24 345 039 166 7,25 6,42 DD AC3 2.0 192Kbps
Код:
DISC INFO:

Disc Title: PUSH
Disc Size: 24 345 039 166 bytes
Protection: AACS
BD-Java: No
BDInfo: 0.5.2

PLAYLIST REPORT:

Name: 00231.MPLS
Size: 526 872 576 bytes
Length: 0:09:41 (h:m:s)
Total Bitrate: 7,25 Mbps
Description:

VIDEO:

Codec Bitrate Description
----- ------- -----------
MPEG-2 Video 6422 kbps 576i / 25 fps / 16:9

AUDIO:

Codec Language Bitrate Description
----- -------- ------- -----------
Dolby Digital Audio English 192 kbps 2.0 / 48 kHz / 192 kbps
Dolby Digital Audio English 192 kbps 2.0 / 48 kHz / 192 kbps

FILES:

Name Time In Length Size Total Bitrate
---- ------- ------ ---- -------------
00010.M2TS 0:00:00.000 0:09:41.000 526 872 576 7 255

CHAPTERS:

Number Time In Length Avg Video Rate Max 1-Sec Rate Max 1-Sec Time Max 5-Sec Rate Max 5-Sec Time Max 10Sec Rate Max 10Sec Time Avg Frame Size Max Frame Size Max Frame Time
------ ------- ------ -------------- -------------- -------------- -------------- -------------- -------------- -------------- -------------- -------------- --------------
1 0:00:00.000 0:09:41.000 6 422 kbps 10 954 kbps 00:08:36.839 10 091 kbps 00:08:36.240 9 804 kbps 00:06:40.800 32 108 bytes 179 475 bytes 00:07:31.599

STREAM DIAGNOSTICS:

File PID Type Codec Language Seconds Bitrate Bytes Packets
---- --- ---- ----- -------- -------------- -------------- ------------- -----
00010.M2TS 4113 (0x1011) 0x02 MPEG-2 580,920 6 423 466 370 230 2 543 090
00010.M2TS 4352 (0x1100) 0x81 AC3 eng (English) 580,920 192 13 943 808 90 780
00010.M2TS 4353 (0x1101) 0x81 AC3 eng (English) 580,920 192 13 943 808 90 780
<---- END FORUMS PASTE ---->

QUICK SUMMARY:

Disc Title: PUSH
Disc Size: 24 345 039 166 bytes
Protection: AACS
BD-Java: No
Playlist: 00231.MPLS
Size: 526 872 576 bytes
Length: 0:09:41
Total Bitrate: 7,25 Mbps
Video: MPEG-2 Video / 6422 kbps / 576i / 25 fps / 16:9
Audio: English / Dolby Digital Audio / 2.0 / 48 kHz / 192 kbps
Audio: English / Dolby Digital Audio / 2.0 / 48 kHz / 192 kbps

********************
PLAYLIST: 00211.MPLS
********************

<--- BEGIN FORUMS PASTE --->
Код:
Total Video
Title Codec Length Movie Size Disc Size Bitrate Bitrate Main Audio Track Secondary Audio Track
----- ------ ------- -------------- -------------- ------- ------- ------------------ ---------------------
00211.MPLS MPEG-2 0:08:52 473 192 448 24 345 039 166 7,10 6,28 DD AC3 2.0 192Kbps
Код:
DISC INFO:

Disc Title: PUSH
Disc Size: 24 345 039 166 bytes
Protection: AACS
BD-Java: No
BDInfo: 0.5.2

PLAYLIST REPORT:

Name: 00211.MPLS
Size: 473 192 448 bytes
Length: 0:08:52 (h:m:s)
Total Bitrate: 7,10 Mbps
Description:

VIDEO:

Codec Bitrate Description
----- ------- -----------
MPEG-2 Video 6278 kbps 576i / 25 fps / 16:9

AUDIO:

Codec Language Bitrate Description
----- -------- ------- -----------
Dolby Digital Audio English 192 kbps 2.0 / 48 kHz / 192 kbps
Dolby Digital Audio Russian 192 kbps 2.0 / 48 kHz / 192 kbps

FILES:

Name Time In Length Size Total Bitrate
---- ------- ------ ---- -------------
00009.M2TS 0:00:00.000 0:08:52.800 473 192 448 7 105

CHAPTERS:

Number Time In Length Avg Video Rate Max 1-Sec Rate Max 1-Sec Time Max 5-Sec Rate Max 5-Sec Time Max 10Sec Rate Max 10Sec Time Avg Frame Size Max Frame Size Max Frame Time
------ ------- ------ -------------- -------------- -------------- -------------- -------------- -------------- -------------- -------------- -------------- --------------
1 0:00:00.000 0:08:52.800 6 278 kbps 11 281 kbps 00:07:49.559 9 961 kbps 00:02:25.320 9 454 kbps 00:05:59.840 31 391 bytes 207 278 bytes 00:05:17.679

STREAM DIAGNOSTICS:

File PID Type Codec Language Seconds Bitrate Bytes Packets
---- --- ---- ----- -------- -------------- -------------- ------------- -----
00009.M2TS 4113 (0x1011) 0x02 MPEG-2 532,720 6 279 418 122 624 2 280 179
00009.M2TS 4352 (0x1100) 0x81 AC3 rus (Russian) 532,720 192 12 787 200 83 250
00009.M2TS 4353 (0x1101) 0x81 AC3 eng (English) 532,720 192 12 787 200 83 250
<---- END FORUMS PASTE ---->

QUICK SUMMARY:

Disc Title: PUSH
Disc Size: 24 345 039 166 bytes
Protection: AACS
BD-Java: No
Playlist: 00211.MPLS
Size: 473 192 448 bytes
Length: 0:08:52
Total Bitrate: 7,10 Mbps
Video: MPEG-2 Video / 6278 kbps / 576i / 25 fps / 16:9
Audio: English / Dolby Digital Audio / 2.0 / 48 kHz / 192 kbps
Audio: Russian / Dolby Digital Audio / 2.0 / 48 kHz / 192 kbps

********************
PLAYLIST: 00220.MPLS
********************

<--- BEGIN FORUMS PASTE --->
Код:
Total Video
Title Codec Length Movie Size Disc Size Bitrate Bitrate Main Audio Track Secondary Audio Track
----- ------ ------- -------------- -------------- ------- ------- ------------------ ---------------------
00220.MPLS MPEG-2 0:02:59 162 920 448 24 345 039 166 7,27 6,44 DD AC3 2.0 192Kbps
Код:
DISC INFO:

Disc Title: PUSH
Disc Size: 24 345 039 166 bytes
Protection: AACS
BD-Java: No
BDInfo: 0.5.2

PLAYLIST REPORT:

Name: 00220.MPLS
Size: 162 920 448 bytes
Length: 0:02:59 (h:m:s)
Total Bitrate: 7,27 Mbps
Description:

VIDEO:

Codec Bitrate Description
----- ------- -----------
MPEG-2 Video 6439 kbps 576i / 25 fps / 16:9

AUDIO:

Codec Language Bitrate Description
----- -------- ------- -----------
Dolby Digital Audio English 192 kbps 2.0 / 48 kHz / 192 kbps
Dolby Digital Audio Russian 192 kbps 2.0 / 48 kHz / 192 kbps

FILES:

Name Time In Length Size Total Bitrate
---- ------- ------ ---- -------------
00008.M2TS 0:00:00.000 0:00:30.000 31 156 224 8 308
00005.M2TS 0:00:30.000 0:00:30.399 26 984 448 7 101
00006.M2TS 0:01:00.399 0:01:08.000 61 022 208 7 179
00007.M2TS 0:02:08.399 0:00:50.799 43 757 568 6 891

CHAPTERS:

Number Time In Length Avg Video Rate Max 1-Sec Rate Max 1-Sec Time Max 5-Sec Rate Max 5-Sec Time Max 10Sec Rate Max 10Sec Time Avg Frame Size Max Frame Size Max Frame Time
------ ------- ------ -------------- -------------- -------------- -------------- -------------- -------------- -------------- -------------- -------------- --------------
1 0:00:00.000 0:00:30.000 7 434 kbps 10 031 kbps 00:00:02.960 8 605 kbps 00:00:00.480 7 981 kbps 00:00:00.840 37 119 bytes 104 698 bytes 00:00:02.399
2 0:00:30.000 0:00:30.399 6 273 kbps 10 173 kbps 00:00:33.000 7 966 kbps 00:00:30.240 7 055 kbps 00:00:31.519 31 365 bytes 184 228 bytes 00:00:33.840
3 0:01:00.399 0:01:08.000 6 349 kbps 10 757 kbps 00:01:22.199 8 729 kbps 00:01:22.199 7 842 kbps 00:01:01.159 31 743 bytes 169 364 bytes 00:01:22.240
4 0:02:08.399 0:00:50.799 6 071 kbps 10 656 kbps 00:02:11.279 8 095 kbps 00:02:17.039 7 698 kbps 00:02:10.519 30 380 bytes 140 764 bytes 00:02:12.000

STREAM DIAGNOSTICS:

File PID Type Codec Language Seconds Bitrate Bytes Packets
---- --- ---- ----- -------- -------------- -------------- ------------- -----
00008.M2TS 4113 (0x1011) 0x02 MPEG-2 29,920 7 451 27 867 049 151 885
00008.M2TS 4352 (0x1100) 0x81 AC3 rus (Russian) 29,920 192 719 616 4 685
00008.M2TS 4353 (0x1101) 0x81 AC3 eng (English) 29,920 192 719 616 4 685
00005.M2TS 4113 (0x1011) 0x02 MPEG-2 30,320 6 290 23 837 558 129 993
00005.M2TS 4352 (0x1100) 0x81 AC3 rus (Russian) 30,320 193 729 600 4 750
00005.M2TS 4353 (0x1101) 0x81 AC3 eng (English) 30,320 193 729 600 4 750
00006.M2TS 4113 (0x1011) 0x02 MPEG-2 67,880 6 360 53 962 353 294 275
00006.M2TS 4352 (0x1100) 0x81 AC3 rus (Russian) 67,880 192 1 632 000 10 625
00006.M2TS 4353 (0x1101) 0x81 AC3 eng (English) 67,880 192 1 632 000 10 625
00007.M2TS 4113 (0x1011) 0x02 MPEG-2 50,720 6 082 38 560 814 210 318
00007.M2TS 4352 (0x1100) 0x81 AC3 rus (Russian) 50,720 192 1 218 816 7 935
00007.M2TS 4353 (0x1101) 0x81 AC3 eng (English) 50,720 192 1 218 816 7 935
<---- END FORUMS PASTE ---->

QUICK SUMMARY:

Disc Title: PUSH
Disc Size: 24 345 039 166 bytes
Protection: AACS
BD-Java: No
Playlist: 00220.MPLS
Size: 162 920 448 bytes
Length: 0:02:59
Total Bitrate: 7,27 Mbps
Video: MPEG-2 Video / 6439 kbps / 576i / 25 fps / 16:9
Audio: English / Dolby Digital Audio / 2.0 / 48 kHz / 192 kbps
Audio: Russian / Dolby Digital Audio / 2.0 / 48 kHz / 192 kbps

********************
PLAYLIST: 00262.MPLS
********************

<--- BEGIN FORUMS PASTE --->
Код:
Total Video
Title Codec Length Movie Size Disc Size Bitrate Bitrate Main Audio Track Secondary Audio Track
----- ------ ------- -------------- -------------- ------- ------- ------------------ ---------------------
00262.MPLS MPEG-2 0:02:19 138 227 712 24 345 039 166 7,94 7,07 DD AC3 2.0 192Kbps
Код:
DISC INFO:

Disc Title: PUSH
Disc Size: 24 345 039 166 bytes
Protection: AACS
BD-Java: No
BDInfo: 0.5.2

PLAYLIST REPORT:

Name: 00262.MPLS
Size: 138 227 712 bytes
Length: 0:02:19 (h:m:s)
Total Bitrate: 7,94 Mbps
Description:

VIDEO:

Codec Bitrate Description
----- ------- -----------
MPEG-2 Video 7073 kbps 576i / 25 fps / 4:3

AUDIO:

Codec Language Bitrate Description
----- -------- ------- -----------
Dolby Digital Audio Russian 192 kbps 2.0 / 48 kHz / 192 kbps
Dolby Digital Audio Russian 192 kbps 2.0 / 48 kHz / 192 kbps

FILES:

Name Time In Length Size Total Bitrate
---- ------- ------ ---- -------------
00013.M2TS 0:00:00.000 0:02:19.360 138 227 712 7 935

CHAPTERS:

Number Time In Length Avg Video Rate Max 1-Sec Rate Max 1-Sec Time Max 5-Sec Rate Max 5-Sec Time Max 10Sec Rate Max 10Sec Time Avg Frame Size Max Frame Size Max Frame Time
------ ------- ------ -------------- -------------- -------------- -------------- -------------- -------------- -------------- -------------- -------------- --------------
1 0:00:00.000 0:02:19.360 7 073 kbps 11 286 kbps 00:01:19.840 10 046 kbps 00:00:34.320 9 589 kbps 00:00:32.040 35 367 bytes 186 782 bytes 00:02:10.000

STREAM DIAGNOSTICS:

File PID Type Codec Language Seconds Bitrate Bytes Packets
---- --- ---- ----- -------- -------------- -------------- ------------- -----
00013.M2TS 4113 (0x1011) 0x02 MPEG-2 139,280 7 077 123 217 811 671 696
00013.M2TS 4352 (0x1100) 0x81 AC3 rus (Russian) 139,280 192 3 344 640 21 775
00013.M2TS 4353 (0x1101) 0x81 AC3 rus (Russian) 139,280 192 3 344 640 21 775
<---- END FORUMS PASTE ---->

QUICK SUMMARY:

Disc Title: PUSH
Disc Size: 24 345 039 166 bytes
Protection: AACS
BD-Java: No
Playlist: 00262.MPLS
Size: 138 227 712 bytes
Length: 0:02:19
Total Bitrate: 7,94 Mbps
Video: MPEG-2 Video / 7073 kbps / 576i / 25 fps / 4:3
Audio: Russian / Dolby Digital Audio / 2.0 / 48 kHz / 192 kbps
Audio: Russian / Dolby Digital Audio / 2.0 / 48 kHz / 192 kbps

********************
PLAYLIST: 00264.MPLS
********************

<--- BEGIN FORUMS PASTE --->
Код:
Total Video
Title Codec Length Movie Size Disc Size Bitrate Bitrate Main Audio Track Secondary Audio Track
----- ------ ------- -------------- -------------- ------- ------- ------------------ ---------------------
00264.MPLS MPEG-2 0:02:07 111 593 472 24 345 039 166 7,00 6,17 DD AC3 2.0 192Kbps
Код:
DISC INFO:

Disc Title: PUSH
Disc Size: 24 345 039 166 bytes
Protection: AACS
BD-Java: No
BDInfo: 0.5.2

PLAYLIST REPORT:

Name: 00264.MPLS
Size: 111 593 472 bytes
Length: 0:02:07 (h:m:s)
Total Bitrate: 7,00 Mbps
Description:

VIDEO:

Codec Bitrate Description
----- ------- -----------
MPEG-2 Video 6173 kbps 576i / 25 fps / 16:9

AUDIO:

Codec Language Bitrate Description
----- -------- ------- -----------
Dolby Digital Audio Russian 192 kbps 2.0 / 48 kHz / 192 kbps
Dolby Digital Audio Russian 192 kbps 2.0 / 48 kHz / 192 kbps

FILES:

Name Time In Length Size Total Bitrate
---- ------- ------ ---- -------------
00018.M2TS 0:00:00.000 0:02:07.600 111 593 472 6 996

CHAPTERS:

Number Time In Length Avg Video Rate Max 1-Sec Rate Max 1-Sec Time Max 5-Sec Rate Max 5-Sec Time Max 10Sec Rate Max 10Sec Time Avg Frame Size Max Frame Size Max Frame Time
------ ------- ------ -------------- -------------- -------------- -------------- -------------- -------------- -------------- -------------- -------------- --------------
1 0:00:00.000 0:02:07.600 6 173 kbps 10 446 kbps 00:01:59.559 8 197 kbps 00:01:58.159 7 876 kbps 00:00:41.160 30 867 bytes 172 943 bytes 00:01:56.880

STREAM DIAGNOSTICS:

File PID Type Codec Language Seconds Bitrate Bytes Packets
---- --- ---- ----- -------- -------------- -------------- ------------- -----
00018.M2TS 4113 (0x1011) 0x02 MPEG-2 127,520 6 177 98 465 775 537 035
00018.M2TS 4352 (0x1100) 0x81 AC3 rus (Russian) 127,520 192 3 062 016 19 935
00018.M2TS 4353 (0x1101) 0x81 AC3 rus (Russian) 127,520 192 3 062 016 19 935
<---- END FORUMS PASTE ---->

QUICK SUMMARY:

Disc Title: PUSH
Disc Size: 24 345 039 166 bytes
Protection: AACS
BD-Java: No
Playlist: 00264.MPLS
Size: 111 593 472 bytes
Length: 0:02:07
Total Bitrate: 7,00 Mbps
Video: MPEG-2 Video / 6173 kbps / 576i / 25 fps / 16:9
Audio: Russian / Dolby Digital Audio / 2.0 / 48 kHz / 192 kbps
Audio: Russian / Dolby Digital Audio / 2.0 / 48 kHz / 192 kbps

********************
PLAYLIST: 00265.MPLS
********************

<--- BEGIN FORUMS PASTE --->
Код:
Total Video
Title Codec Length Movie Size Disc Size Bitrate Bitrate Main Audio Track Secondary Audio Track
----- ------ ------- -------------- -------------- ------- ------- ------------------ ---------------------
00265.MPLS MPEG-2 0:01:42 100 061 184 24 345 039 166 7,82 6,96 DD AC3 2.0 192Kbps
Код:
DISC INFO:

Disc Title: PUSH
Disc Size: 24 345 039 166 bytes
Protection: AACS
BD-Java: No
BDInfo: 0.5.2

PLAYLIST REPORT:

Name: 00265.MPLS
Size: 100 061 184 bytes
Length: 0:01:42 (h:m:s)
Total Bitrate: 7,82 Mbps
Description:

VIDEO:

Codec Bitrate Description
----- ------- -----------
MPEG-2 Video 6964 kbps 576i / 25 fps / 16:9

AUDIO:

Codec Language Bitrate Description
----- -------- ------- -----------
Dolby Digital Audio Russian 192 kbps 2.0 / 48 kHz / 192 kbps
Dolby Digital Audio Russian 192 kbps 2.0 / 48 kHz / 192 kbps

FILES:

Name Time In Length Size Total Bitrate
---- ------- ------ ---- -------------
00019.M2TS 0:00:00.000 0:01:42.360 100 061 184 7 820

CHAPTERS:

Number Time In Length Avg Video Rate Max 1-Sec Rate Max 1-Sec Time Max 5-Sec Rate Max 5-Sec Time Max 10Sec Rate Max 10Sec Time Avg Frame Size Max Frame Size Max Frame Time
------ ------- ------ -------------- -------------- -------------- -------------- -------------- -------------- -------------- -------------- -------------- --------------
1 0:00:00.000 0:01:42.360 6 964 kbps 11 252 kbps 00:00:17.879 9 520 kbps 00:01:02.120 9 366 kbps 00:01:02.560 34 818 bytes 155 556 bytes 00:00:37.840

STREAM DIAGNOSTICS:

File PID Type Codec Language Seconds Bitrate Bytes Packets
---- --- ---- ----- -------- -------------- -------------- ------------- -----
00019.M2TS 4113 (0x1011) 0x02 MPEG-2 102,240 6 972 89 098 569 485 715
00019.M2TS 4352 (0x1100) 0x81 AC3 rus (Russian) 102,240 192 2 456 832 15 995
00019.M2TS 4353 (0x1101) 0x81 AC3 rus (Russian) 102,240 192 2 456 832 15 995
<---- END FORUMS PASTE ---->

QUICK SUMMARY:

Disc Title: PUSH
Disc Size: 24 345 039 166 bytes
Protection: AACS
BD-Java: No
Playlist: 00265.MPLS
Size: 100 061 184 bytes
Length: 0:01:42
Total Bitrate: 7,82 Mbps
Video: MPEG-2 Video / 6964 kbps / 576i / 25 fps / 16:9
Audio: Russian / Dolby Digital Audio / 2.0 / 48 kHz / 192 kbps
Audio: Russian / Dolby Digital Audio / 2.0 / 48 kHz / 192 kbps

********************
PLAYLIST: 00261.MPLS
********************

<--- BEGIN FORUMS PASTE --->
Код:
Total Video
Title Codec Length Movie Size Disc Size Bitrate Bitrate Main Audio Track Secondary Audio Track
----- ------ ------- -------------- -------------- ------- ------- ------------------ ---------------------
00261.MPLS MPEG-2 0:01:40 90 206 208 24 345 039 166 7,15 6,32 DD AC3 2.0 192Kbps
Код:
DISC INFO:

Disc Title: PUSH
Disc Size: 24 345 039 166 bytes
Protection: AACS
BD-Java: No
BDInfo: 0.5.2

PLAYLIST REPORT:

Name: 00261.MPLS
Size: 90 206 208 bytes
Length: 0:01:40 (h:m:s)
Total Bitrate: 7,15 Mbps
Description:

VIDEO:

Codec Bitrate Description
----- ------- -----------
MPEG-2 Video 6318 kbps 576i / 25 fps / 16:9

AUDIO:

Codec Language Bitrate Description
----- -------- ------- -----------
Dolby Digital Audio Russian 192 kbps 2.0 / 48 kHz / 192 kbps
Dolby Digital Audio Russian 192 kbps 2.0 / 48 kHz / 192 kbps

FILES:

Name Time In Length Size Total Bitrate
---- ------- ------ ---- -------------
00011.M2TS 0:00:00.000 0:01:40.960 90 206 208 7 148

CHAPTERS:

Number Time In Length Avg Video Rate Max 1-Sec Rate Max 1-Sec Time Max 5-Sec Rate Max 5-Sec Time Max 10Sec Rate Max 10Sec Time Avg Frame Size Max Frame Size Max Frame Time
------ ------- ------ -------------- -------------- -------------- -------------- -------------- -------------- -------------- -------------- -------------- --------------
1 0:00:00.000 0:01:40.960 6 318 kbps 11 297 kbps 00:01:07.399 9 861 kbps 00:00:57.000 8 413 kbps 00:00:58.960 31 592 bytes 163 880 bytes 00:00:08.240

STREAM DIAGNOSTICS:

File PID Type Codec Language Seconds Bitrate Bytes Packets
---- --- ---- ----- -------- -------------- -------------- ------------- -----
00011.M2TS 4113 (0x1011) 0x02 MPEG-2 100,880 6 323 79 737 846 434 858
00011.M2TS 4352 (0x1100) 0x81 AC3 rus (Russian) 100,880 192 2 423 040 15 775
00011.M2TS 4353 (0x1101) 0x81 AC3 rus (Russian) 100,880 192 2 423 040 15 775
<---- END FORUMS PASTE ---->

QUICK SUMMARY:

Disc Title: PUSH
Disc Size: 24 345 039 166 bytes
Protection: AACS
BD-Java: No
Playlist: 00261.MPLS
Size: 90 206 208 bytes
Length: 0:01:40
Total Bitrate: 7,15 Mbps
Video: MPEG-2 Video / 6318 kbps / 576i / 25 fps / 16:9
Audio: Russian / Dolby Digital Audio / 2.0 / 48 kHz / 192 kbps
Audio: Russian / Dolby Digital Audio / 2.0 / 48 kHz / 192 kbps

********************
PLAYLIST: 00004.MPLS
********************

<--- BEGIN FORUMS PASTE --->
Код:
Total Video
Title Codec Length Movie Size Disc Size Bitrate Bitrate Main Audio Track Secondary Audio Track
----- ------ ------- -------------- -------------- ------- ------- ------------------ ---------------------
00004.MPLS MPEG-2 0:01:36 69 605 376 24 345 039 166 5,78 5,24 DD AC3 2.0 192Kbps
Код:
DISC INFO:

Disc Title: PUSH
Disc Size: 24 345 039 166 bytes
Protection: AACS
BD-Java: No
BDInfo: 0.5.2

PLAYLIST REPORT:

Name: 00004.MPLS
Size: 69 605 376 bytes
Length: 0:01:36 (h:m:s)
Total Bitrate: 5,78 Mbps
Description:

VIDEO:

Codec Bitrate Description
----- ------- -----------
MPEG-2 Video 5237 kbps 576i / 25 fps / 16:9

AUDIO:

Codec Language Bitrate Description
----- -------- ------- -----------
Dolby Digital Audio Russian 192 kbps 2.0 / 48 kHz / 192 kbps

FILES:

Name Time In Length Size Total Bitrate
---- ------- ------ ---- -------------
00017.M2TS 0:00:00.000 0:01:36.360 69 605 376 5 779

CHAPTERS:

Number Time In Length Avg Video Rate Max 1-Sec Rate Max 1-Sec Time Max 5-Sec Rate Max 5-Sec Time Max 10Sec Rate Max 10Sec Time Avg Frame Size Max Frame Size Max Frame Time
------ ------- ------ -------------- -------------- -------------- -------------- -------------- -------------- -------------- -------------- -------------- --------------
1 0:00:00.000 0:01:36.360 5 237 kbps 11 302 kbps 00:00:33.759 9 405 kbps 00:01:01.159 8 412 kbps 00:01:01.160 26 183 bytes 195 620 bytes 00:00:34.159

STREAM DIAGNOSTICS:

File PID Type Codec Language Seconds Bitrate Bytes Packets
---- --- ---- ----- -------- -------------- -------------- ------------- -----
00017.M2TS 4113 (0x1011) 0x02 MPEG-2 96,280 5 241 63 074 142 344 212
00017.M2TS 4352 (0x1100) 0x81 AC3 rus (Russian) 96,280 192 2 312 448 15 055
<---- END FORUMS PASTE ---->

QUICK SUMMARY:

Disc Title: PUSH
Disc Size: 24 345 039 166 bytes
Protection: AACS
BD-Java: No
Playlist: 00004.MPLS
Size: 69 605 376 bytes
Length: 0:01:36
Total Bitrate: 5,78 Mbps
Video: MPEG-2 Video / 5237 kbps / 576i / 25 fps / 16:9
Audio: Russian / Dolby Digital Audio / 2.0 / 48 kHz / 192 kbps

********************
PLAYLIST: 00241.MPLS
********************

<--- BEGIN FORUMS PASTE --->
Код:
Total Video
Title Codec Length Movie Size Disc Size Bitrate Bitrate Main Audio Track Secondary Audio Track
----- ------ ------- -------------- -------------- ------- ------- ------------------ ---------------------
00241.MPLS MPEG-2 0:01:30 84 019 200 24 345 039 166 7,44 6,59 DD AC3 2.0 192Kbps
Код:
DISC INFO:

Disc Title: PUSH
Disc Size: 24 345 039 166 bytes
Protection: AACS
BD-Java: No
BDInfo: 0.5.2

PLAYLIST REPORT:

Name: 00241.MPLS
Size: 84 019 200 bytes
Length: 0:01:30 (h:m:s)
Total Bitrate: 7,44 Mbps
Description:

VIDEO:

Codec Bitrate Description
----- ------- -----------
MPEG-2 Video 6594 kbps 576i / 25 fps / 16:9

AUDIO:

Codec Language Bitrate Description
----- -------- ------- -----------
Dolby Digital Audio English 192 kbps 2.0 / 48 kHz / 192 kbps
Dolby Digital Audio English 192 kbps 2.0 / 48 kHz / 192 kbps

FILES:

Name Time In Length Size Total Bitrate
---- ------- ------ ---- -------------
00014.M2TS 0:00:00.000 0:01:30.399 84 019 200 7 435

CHAPTERS:

Number Time In Length Avg Video Rate Max 1-Sec Rate Max 1-Sec Time Max 5-Sec Rate Max 5-Sec Time Max 10Sec Rate Max 10Sec Time Avg Frame Size Max Frame Size Max Frame Time
------ ------- ------ -------------- -------------- -------------- -------------- -------------- -------------- -------------- -------------- -------------- --------------
1 0:00:00.000 0:01:30.399 6 594 kbps 11 277 kbps 00:01:05.880 9 388 kbps 00:00:45.519 9 271 kbps 00:00:40.400 32 970 bytes 205 502 bytes 00:00:23.440

STREAM DIAGNOSTICS:

File PID Type Codec Language Seconds Bitrate Bytes Packets
---- --- ---- ----- -------- -------------- -------------- ------------- -----
00014.M2TS 4113 (0x1011) 0x02 MPEG-2 90,320 6 600 74 512 893 406 283
00014.M2TS 4352 (0x1100) 0x81 AC3 eng (English) 90,320 192 2 169 600 14 125
00014.M2TS 4353 (0x1101) 0x81 AC3 eng (English) 90,320 192 2 169 600 14 125
<---- END FORUMS PASTE ---->

QUICK SUMMARY:

Disc Title: PUSH
Disc Size: 24 345 039 166 bytes
Protection: AACS
BD-Java: No
Playlist: 00241.MPLS
Size: 84 019 200 bytes
Length: 0:01:30
Total Bitrate: 7,44 Mbps
Video: MPEG-2 Video / 6594 kbps / 576i / 25 fps / 16:9
Audio: English / Dolby Digital Audio / 2.0 / 48 kHz / 192 kbps
Audio: English / Dolby Digital Audio / 2.0 / 48 kHz / 192 kbps

********************
PLAYLIST: 00251.MPLS
********************

<--- BEGIN FORUMS PASTE --->
Код:
Total Video
Title Codec Length Movie Size Disc Size Bitrate Bitrate Main Audio Track Secondary Audio Track
----- ------ ------- -------------- -------------- ------- ------- ------------------ ---------------------
00251.MPLS MPEG-2 0:01:28 87 238 656 24 345 039 166 7,91 7,05 DD AC3 2.0 192Kbps
Код:
DISC INFO:

Disc Title: PUSH
Disc Size: 24 345 039 166 bytes
Protection: AACS
BD-Java: No
BDInfo: 0.5.2

PLAYLIST REPORT:

Name: 00251.MPLS
Size: 87 238 656 bytes
Length: 0:01:28 (h:m:s)
Total Bitrate: 7,91 Mbps
Description:

VIDEO:

Codec Bitrate Description
----- ------- -----------
MPEG-2 Video 7045 kbps 576i / 25 fps / 16:9

AUDIO:

Codec Language Bitrate Description
----- -------- ------- -----------
Dolby Digital Audio Russian 192 kbps 2.0 / 48 kHz / 192 kbps
Dolby Digital Audio Russian 192 kbps 2.0 / 48 kHz / 192 kbps

FILES:

Name Time In Length Size Total Bitrate
---- ------- ------ ---- -------------
00015.M2TS 0:00:00.000 0:01:28.279 87 238 656 7 906

CHAPTERS:

Number Time In Length Avg Video Rate Max 1-Sec Rate Max 1-Sec Time Max 5-Sec Rate Max 5-Sec Time Max 10Sec Rate Max 10Sec Time Avg Frame Size Max Frame Size Max Frame Time
------ ------- ------ -------------- -------------- -------------- -------------- -------------- -------------- -------------- -------------- -------------- --------------
1 0:00:00.000 0:01:28.279 7 045 kbps 11 299 kbps 00:00:25.759 9 840 kbps 00:00:39.159 9 773 kbps 00:00:39.160 35 225 bytes 178 215 bytes 00:00:39.720

STREAM DIAGNOSTICS:

File PID Type Codec Language Seconds Bitrate Bytes Packets
---- --- ---- ----- -------- -------------- -------------- ------------- -----
00015.M2TS 4113 (0x1011) 0x02 MPEG-2 88,200 7 051 77 742 251 423 800
00015.M2TS 4352 (0x1100) 0x81 AC3 rus (Russian) 88,200 192 2 118 912 13 795
00015.M2TS 4353 (0x1101) 0x81 AC3 rus (Russian) 88,200 192 2 118 912 13 795
<---- END FORUMS PASTE ---->

QUICK SUMMARY:

Disc Title: PUSH
Disc Size: 24 345 039 166 bytes
Protection: AACS
BD-Java: No
Playlist: 00251.MPLS
Size: 87 238 656 bytes
Length: 0:01:28
Total Bitrate: 7,91 Mbps
Video: MPEG-2 Video / 7045 kbps / 576i / 25 fps / 16:9
Audio: Russian / Dolby Digital Audio / 2.0 / 48 kHz / 192 kbps
Audio: Russian / Dolby Digital Audio / 2.0 / 48 kHz / 192 kbps

********************
PLAYLIST: 00223.MPLS
********************

<--- BEGIN FORUMS PASTE --->
Код:
Total Video
Title Codec Length Movie Size Disc Size Bitrate Bitrate Main Audio Track Secondary Audio Track
----- ------ ------- -------------- -------------- ------- ------- ------------------ ---------------------
00223.MPLS MPEG-2 0:01:08 61 022 208 24 345 039 166 7,18 6,35 DD AC3 2.0 192Kbps
Код:
DISC INFO:

Disc Title: PUSH
Disc Size: 24 345 039 166 bytes
Protection: AACS
BD-Java: No
BDInfo: 0.5.2

PLAYLIST REPORT:

Name: 00223.MPLS
Size: 61 022 208 bytes
Length: 0:01:08 (h:m:s)
Total Bitrate: 7,18 Mbps
Description:

VIDEO:

Codec Bitrate Description
----- ------- -----------
MPEG-2 Video 6349 kbps 576i / 25 fps / 16:9

AUDIO:

Codec Language Bitrate Description
----- -------- ------- -----------
Dolby Digital Audio English 192 kbps 2.0 / 48 kHz / 192 kbps
Dolby Digital Audio Russian 192 kbps 2.0 / 48 kHz / 192 kbps

FILES:

Name Time In Length Size Total Bitrate
---- ------- ------ ---- -------------
00006.M2TS 0:00:00.000 0:01:08.000 61 022 208 7 179

CHAPTERS:

Number Time In Length Avg Video Rate Max 1-Sec Rate Max 1-Sec Time Max 5-Sec Rate Max 5-Sec Time Max 10Sec Rate Max 10Sec Time Avg Frame Size Max Frame Size Max Frame Time
------ ------- ------ -------------- -------------- -------------- -------------- -------------- -------------- -------------- -------------- -------------- --------------
1 0:00:00.000 0:01:08.000 6 349 kbps 10 757 kbps 00:00:21.799 8 729 kbps 00:00:21.799 7 842 kbps 00:00:00.759 31 743 bytes 169 364 bytes 00:00:21.840

STREAM DIAGNOSTICS:

File PID Type Codec Language Seconds Bitrate Bytes Packets
---- --- ---- ----- -------- -------------- -------------- ------------- -----
00006.M2TS 4113 (0x1011) 0x02 MPEG-2 67,880 6 360 53 962 353 294 275
00006.M2TS 4352 (0x1100) 0x81 AC3 rus (Russian) 67,880 192 1 632 000 10 625
00006.M2TS 4353 (0x1101) 0x81 AC3 eng (English) 67,880 192 1 632 000 10 625
<---- END FORUMS PASTE ---->

QUICK SUMMARY:

Disc Title: PUSH
Disc Size: 24 345 039 166 bytes
Protection: AACS
BD-Java: No
Playlist: 00223.MPLS
Size: 61 022 208 bytes
Length: 0:01:08
Total Bitrate: 7,18 Mbps
Video: MPEG-2 Video / 6349 kbps / 576i / 25 fps / 16:9
Audio: English / Dolby Digital Audio / 2.0 / 48 kHz / 192 kbps
Audio: Russian / Dolby Digital Audio / 2.0 / 48 kHz / 192 kbps

********************
PLAYLIST: 00263.MPLS
********************

<--- BEGIN FORUMS PASTE --->
Код:
Total Video
Title Codec Length Movie Size Disc Size Bitrate Bitrate Main Audio Track Secondary Audio Track
----- ------ ------- -------------- -------------- ------- ------- ------------------ ---------------------
00263.MPLS MPEG-2 0:01:05 63 571 968 24 345 039 166 7,75 6,90 DD AC3 2.0 192Kbps
Код:
DISC INFO:

Disc Title: PUSH
Disc Size: 24 345 039 166 bytes
Protection: AACS
BD-Java: No
BDInfo: 0.5.2

PLAYLIST REPORT:

Name: 00263.MPLS
Size: 63 571 968 bytes
Length: 0:01:05 (h:m:s)
Total Bitrate: 7,75 Mbps
Description:

VIDEO:

Codec Bitrate Description
----- ------- -----------
MPEG-2 Video 6898 kbps 576i / 25 fps / 4:3

AUDIO:

Codec Language Bitrate Description
----- -------- ------- -----------
Dolby Digital Audio Russian 192 kbps 2.0 / 48 kHz / 192 kbps
Dolby Digital Audio Russian 192 kbps 2.0 / 48 kHz / 192 kbps

FILES:

Name Time In Length Size Total Bitrate
---- ------- ------ ---- -------------
00012.M2TS 0:00:00.000 0:01:05.600 63 571 968 7 753

CHAPTERS:

Number Time In Length Avg Video Rate Max 1-Sec Rate Max 1-Sec Time Max 5-Sec Rate Max 5-Sec Time Max 10Sec Rate Max 10Sec Time Avg Frame Size Max Frame Size Max Frame Time
------ ------- ------ -------------- -------------- -------------- -------------- -------------- -------------- -------------- -------------- -------------- --------------
1 0:00:00.000 0:01:05.600 6 898 kbps 11 254 kbps 00:00:36.000 10 106 kbps 00:00:53.679 9 669 kbps 00:00:53.680 34 489 bytes 139 247 bytes 00:00:33.080

STREAM DIAGNOSTICS:

File PID Type Codec Language Seconds Bitrate Bytes Packets
---- --- ---- ----- -------- -------------- -------------- ------------- -----
00012.M2TS 4113 (0x1011) 0x02 MPEG-2 65,520 6 906 56 562 773 308 368
00012.M2TS 4352 (0x1100) 0x81 AC3 rus (Russian) 65,520 192 1 574 400 10 250
00012.M2TS 4353 (0x1101) 0x81 AC3 rus (Russian) 65,520 192 1 574 400 10 250
<---- END FORUMS PASTE ---->

QUICK SUMMARY:

Disc Title: PUSH
Disc Size: 24 345 039 166 bytes
Protection: AACS
BD-Java: No
Playlist: 00263.MPLS
Size: 63 571 968 bytes
Length: 0:01:05
Total Bitrate: 7,75 Mbps
Video: MPEG-2 Video / 6898 kbps / 576i / 25 fps / 4:3
Audio: Russian / Dolby Digital Audio / 2.0 / 48 kHz / 192 kbps
Audio: Russian / Dolby Digital Audio / 2.0 / 48 kHz / 192 kbps

********************
PLAYLIST: 00224.MPLS
********************

<--- BEGIN FORUMS PASTE --->
Код:
Total Video
Title Codec Length Movie Size Disc Size Bitrate Bitrate Main Audio Track Secondary Audio Track
----- ------ ------- -------------- -------------- ------- ------- ------------------ ---------------------
00224.MPLS MPEG-2 0:00:50 43 757 568 24 345 039 166 6,89 6,07 DD AC3 2.0 192Kbps
Код:
DISC INFO:

Disc Title: PUSH
Disc Size: 24 345 039 166 bytes
Protection: AACS
BD-Java: No
BDInfo: 0.5.2

PLAYLIST REPORT:

Name: 00224.MPLS
Size: 43 757 568 bytes
Length: 0:00:50 (h:m:s)
Total Bitrate: 6,89 Mbps
Description:

VIDEO:

Codec Bitrate Description
----- ------- -----------
MPEG-2 Video 6073 kbps 576i / 25 fps / 16:9

AUDIO:

Codec Language Bitrate Description
----- -------- ------- -----------
Dolby Digital Audio English 192 kbps 2.0 / 48 kHz / 192 kbps
Dolby Digital Audio Russian 192 kbps 2.0 / 48 kHz / 192 kbps

FILES:

Name Time In Length Size Total Bitrate
---- ------- ------ ---- -------------
00007.M2TS 0:00:00.000 0:00:50.799 43 757 568 6 891

CHAPTERS:

Number Time In Length Avg Video Rate Max 1-Sec Rate Max 1-Sec Time Max 5-Sec Rate Max 5-Sec Time Max 10Sec Rate Max 10Sec Time Avg Frame Size Max Frame Size Max Frame Time
------ ------- ------ -------------- -------------- -------------- -------------- -------------- -------------- -------------- -------------- -------------- --------------
1 0:00:00.000 0:00:50.799 6 073 kbps 10 656 kbps 00:00:02.879 8 095 kbps 00:00:08.639 7 698 kbps 00:00:02.120 30 363 bytes 140 764 bytes 00:00:03.600

STREAM DIAGNOSTICS:

File PID Type Codec Language Seconds Bitrate Bytes Packets
---- --- ---- ----- -------- -------------- -------------- ------------- -----
00007.M2TS 4113 (0x1011) 0x02 MPEG-2 50,720 6 082 38 560 814 210 318
00007.M2TS 4352 (0x1100) 0x81 AC3 rus (Russian) 50,720 192 1 218 816 7 935
00007.M2TS 4353 (0x1101) 0x81 AC3 eng (English) 50,720 192 1 218 816 7 935
<---- END FORUMS PASTE ---->

QUICK SUMMARY:

Disc Title: PUSH
Disc Size: 24 345 039 166 bytes
Protection: AACS
BD-Java: No
Playlist: 00224.MPLS
Size: 43 757 568 bytes
Length: 0:00:50
Total Bitrate: 6,89 Mbps
Video: MPEG-2 Video / 6073 kbps / 576i / 25 fps / 16:9
Audio: English / Dolby Digital Audio / 2.0 / 48 kHz / 192 kbps
Audio: Russian / Dolby Digital Audio / 2.0 / 48 kHz / 192 kbps

********************
PLAYLIST: 00222.MPLS
********************

<--- BEGIN FORUMS PASTE --->
Код:
Total Video
Title Codec Length Movie Size Disc Size Bitrate Bitrate Main Audio Track Secondary Audio Track
----- ------ ------- -------------- -------------- ------- ------- ------------------ ---------------------
00222.MPLS MPEG-2 0:00:30 26 984 448 24 345 039 166 7,10 6,27 DD AC3 2.0 192Kbps
Код:
DISC INFO:

Disc Title: PUSH
Disc Size: 24 345 039 166 bytes
Protection: AACS
BD-Java: No
BDInfo: 0.5.2

PLAYLIST REPORT:

Name: 00222.MPLS
Size: 26 984 448 bytes
Length: 0:00:30 (h:m:s)
Total Bitrate: 7,10 Mbps
Description:

VIDEO:

Codec Bitrate Description
----- ------- -----------
MPEG-2 Video 6273 kbps 576i / 25 fps / 16:9

AUDIO:

Codec Language Bitrate Description
----- -------- ------- -----------
Dolby Digital Audio English 192 kbps 2.0 / 48 kHz / 192 kbps
Dolby Digital Audio Russian 192 kbps 2.0 / 48 kHz / 192 kbps

FILES:

Name Time In Length Size Total Bitrate
---- ------- ------ ---- -------------
00005.M2TS 0:00:00.000 0:00:30.399 26 984 448 7 101

CHAPTERS:

Number Time In Length Avg Video Rate Max 1-Sec Rate Max 1-Sec Time Max 5-Sec Rate Max 5-Sec Time Max 10Sec Rate Max 10Sec Time Avg Frame Size Max Frame Size Max Frame Time
------ ------- ------ -------------- -------------- -------------- -------------- -------------- -------------- -------------- -------------- -------------- --------------
1 0:00:00.000 0:00:30.399 6 273 kbps 10 173 kbps 00:00:03.000 7 966 kbps 00:00:00.240 7 055 kbps 00:00:01.519 31 365 bytes 184 228 bytes 00:00:03.840

STREAM DIAGNOSTICS:

File PID Type Codec Language Seconds Bitrate Bytes Packets
---- --- ---- ----- -------- -------------- -------------- ------------- -----
00005.M2TS 4113 (0x1011) 0x02 MPEG-2 30,320 6 290 23 837 558 129 993
00005.M2TS 4352 (0x1100) 0x81 AC3 rus (Russian) 30,320 193 729 600 4 750
00005.M2TS 4353 (0x1101) 0x81 AC3 eng (English) 30,320 193 729 600 4 750
<---- END FORUMS PASTE ---->

QUICK SUMMARY:

Disc Title: PUSH
Disc Size: 24 345 039 166 bytes
Protection: AACS
BD-Java: No
Playlist: 00222.MPLS
Size: 26 984 448 bytes
Length: 0:00:30
Total Bitrate: 7,10 Mbps
Video: MPEG-2 Video / 6273 kbps / 576i / 25 fps / 16:9
Audio: English / Dolby Digital Audio / 2.0 / 48 kHz / 192 kbps
Audio: Russian / Dolby Digital Audio / 2.0 / 48 kHz / 192 kbps

********************
PLAYLIST: 00001.MPLS
********************

<--- BEGIN FORUMS PASTE --->
Код:
Total Video
Title Codec Length Movie Size Disc Size Bitrate Bitrate Main Audio Track Secondary Audio Track
----- ------ ------- -------------- -------------- ------- ------- ------------------ ---------------------
00001.MPLS AVC 0:00:30 87 416 832 24 345 039 166 23,29 20,28
Код:
DISC INFO:

Disc Title: PUSH
Disc Size: 24 345 039 166 bytes
Protection: AACS
BD-Java: No
BDInfo: 0.5.2

PLAYLIST REPORT:

Name: 00001.MPLS
Size: 87 416 832 bytes
Length: 0:00:30 (h:m:s)
Total Bitrate: 23,29 Mbps
Description:

VIDEO:

Codec Bitrate Description
----- ------- -----------
MPEG-4 AVC Video 20283 kbps 1080p / 23,976 fps / 16:9 / High Profile 4.1

FILES:

Name Time In Length Size Total Bitrate
---- ------- ------ ---- -------------
00001.M2TS 0:00:00.000 0:00:14.389 32 206 848 17 906
00002.M2TS 0:00:14.389 0:00:15.640 55 209 984 28 239

CHAPTERS:

Number Time In Length Avg Video Rate Max 1-Sec Rate Max 1-Sec Time Max 5-Sec Rate Max 5-Sec Time Max 10Sec Rate Max 10Sec Time Avg Frame Size Max Frame Size Max Frame Time
------ ------- ------ -------------- -------------- -------------- -------------- -------------- -------------- -------------- -------------- -------------- --------------
1 0:00:00.000 0:00:30.029 20 283 kbps 48 589 kbps 00:00:23.648 38 177 kbps 00:00:21.938 31 630 kbps 00:00:17.016 105 747 bytes 363 205 bytes 00:00:23.898

STREAM DIAGNOSTICS:

File PID Type Codec Language Seconds Bitrate Bytes Packets
---- --- ---- ----- -------- -------------- -------------- ------------- -----
00001.M2TS 4113 (0x1011) 0x1B AVC 14,223 13 145 23 369 729 127 213
00002.M2TS 4113 (0x1011) 0x1B AVC 15,474 27 281 52 768 225 287 004
<---- END FORUMS PASTE ---->

QUICK SUMMARY:

Disc Title: PUSH
Disc Size: 24 345 039 166 bytes
Protection: AACS
BD-Java: No
Playlist: 00001.MPLS
Size: 87 416 832 bytes
Length: 0:00:30
Total Bitrate: 23,29 Mbps
Video: MPEG-4 AVC Video / 20283 kbps / 1080p / 23,976 fps / 16:9 / High Profile 4.1

********************
PLAYLIST: 00221.MPLS
********************

<--- BEGIN FORUMS PASTE --->
Код:
Total Video
Title Codec Length Movie Size Disc Size Bitrate Bitrate Main Audio Track Secondary Audio Track
----- ------ ------- -------------- -------------- ------- ------- ------------------ ---------------------
00221.MPLS MPEG-2 0:00:30 31 156 224 24 345 039 166 8,31 7,43 DD AC3 2.0 192Kbps
Код:
DISC INFO:

Disc Title: PUSH
Disc Size: 24 345 039 166 bytes
Protection: AACS
BD-Java: No
BDInfo: 0.5.2

PLAYLIST REPORT:

Name: 00221.MPLS
Size: 31 156 224 bytes
Length: 0:00:30 (h:m:s)
Total Bitrate: 8,31 Mbps
Description:

VIDEO:

Codec Bitrate Description
----- ------- -----------
MPEG-2 Video 7431 kbps 576i / 25 fps / 16:9

AUDIO:

Codec Language Bitrate Description
----- -------- ------- -----------
Dolby Digital Audio English 192 kbps 2.0 / 48 kHz / 192 kbps
Dolby Digital Audio Russian 192 kbps 2.0 / 48 kHz / 192 kbps

FILES:

Name Time In Length Size Total Bitrate
---- ------- ------ ---- -------------
00008.M2TS 0:00:00.000 0:00:30.000 31 156 224 8 308

CHAPTERS:

Number Time In Length Avg Video Rate Max 1-Sec Rate Max 1-Sec Time Max 5-Sec Rate Max 5-Sec Time Max 10Sec Rate Max 10Sec Time Avg Frame Size Max Frame Size Max Frame Time
------ ------- ------ -------------- -------------- -------------- -------------- -------------- -------------- -------------- -------------- -------------- --------------
1 0:00:00.000 0:00:30.000 7 431 kbps 10 031 kbps 00:00:02.960 8 605 kbps 00:00:00.480 7 981 kbps 00:00:00.840 37 156 bytes 104 698 bytes 00:00:02.399

STREAM DIAGNOSTICS:

File PID Type Codec Language Seconds Bitrate Bytes Packets
---- --- ---- ----- -------- -------------- -------------- ------------- -----
00008.M2TS 4113 (0x1011) 0x02 MPEG-2 29,920 7 451 27 867 049 151 885
00008.M2TS 4352 (0x1100) 0x81 AC3 rus (Russian) 29,920 192 719 616 4 685
00008.M2TS 4353 (0x1101) 0x81 AC3 eng (English) 29,920 192 719 616 4 685
<---- END FORUMS PASTE ---->

QUICK SUMMARY:

Disc Title: PUSH
Disc Size: 24 345 039 166 bytes
Protection: AACS
BD-Java: No
Playlist: 00221.MPLS
Size: 31 156 224 bytes
Length: 0:00:30
Total Bitrate: 8,31 Mbps
Video: MPEG-2 Video / 7431 kbps / 576i / 25 fps / 16:9
Audio: English / Dolby Digital Audio / 2.0 / 48 kHz / 192 kbps
Audio: Russian / Dolby Digital Audio / 2.0 / 48 kHz / 192 kbps

********************
PLAYLIST: 00000.MPLS
********************

<--- BEGIN FORUMS PASTE --->
Код:
Total Video
Title Codec Length Movie Size Disc Size Bitrate Bitrate Main Audio Track Secondary Audio Track
----- ------ ------- -------------- -------------- ------- ------- ------------------ ---------------------
00000.MPLS AVC 0:00:12 4 896 768 24 345 039 166 3,26 3,06
Код:
DISC INFO:

Disc Title: PUSH
Disc Size: 24 345 039 166 bytes
Protection: AACS
BD-Java: No
BDInfo: 0.5.2

PLAYLIST REPORT:

Name: 00000.MPLS
Size: 4 896 768 bytes
Length: 0:00:12 (h:m:s)
Total Bitrate: 3,26 Mbps
Description:

VIDEO:

Codec Bitrate Description
----- ------- -----------
MPEG-4 AVC Video 3059 kbps 1080p / 23,976 fps / 16:9 / High Profile 4.1

FILES:

Name Time In Length Size Total Bitrate
---- ------- ------ ---- -------------
00000.M2TS 0:00:00.000 0:00:12.011 4 896 768 3 261

CHAPTERS:

Number Time In Length Avg Video Rate Max 1-Sec Rate Max 1-Sec Time Max 5-Sec Rate Max 5-Sec Time Max 10Sec Rate Max 10Sec Time Avg Frame Size Max Frame Size Max Frame Time
------ ------- ------ -------------- -------------- -------------- -------------- -------------- -------------- -------------- -------------- -------------- --------------
1 0:00:00.000 0:00:12.011 3 059 kbps 8 985 kbps 00:00:10.969 3 347 kbps 00:00:06.715 2 677 kbps 00:00:01.960 15 948 bytes 179 417 bytes 00:00:08.258

STREAM DIAGNOSTICS:

File PID Type Codec Language Seconds Bitrate Bytes Packets
---- --- ---- ----- -------- -------------- -------------- ------------- -----
00000.M2TS 4113 (0x1011) 0x1B AVC 11,845 3 102 4 593 114 25 099
<---- END FORUMS PASTE ---->

QUICK SUMMARY:

Disc Title: PUSH
Disc Size: 24 345 039 166 bytes
Protection: AACS
BD-Java: No
Playlist: 00000.MPLS
Size: 4 896 768 bytes
Length: 0:00:12
Total Bitrate: 3,26 Mbps
Video: MPEG-4 AVC Video / 3059 kbps / 1080p / 23,976 fps / 16:9 / High Profile 4.1
pb.wtf



Скачать Пятое измерение через торрент http://pic.kartinco.top/images/2011/scqldbuakq.jpg Скачать фильм Пятое измерение через торрент бесплантно в хорошем качестве Описание: Ник, американский эмигрант, обладает способностью к телекинезу. Он скрывается в е от могущественной организации, которая ... 9.2 10 5
Info! Золотая раздача, скачанное не засчитывается.
Торрент: Зарегистрирован [2012-01-01 11:17] · скачан: 206 раз
Статус: √ проверено
Размер: 22.67 GB
Как cкачать? Как скачать Пятое измерение через торрент | qTorrent

% Раздел Тема Автор DL S | L
Фильмы [HD 720p, 1080p] (Хороший звук DUB, MVO) [ 7.13 GB ] Пятое измерение / Push [2009 BDRip 720] .::Sergey::. Скачать
1 | 0
Ultra HD (UHD: 2K, 4K, 8K) — видео сверхвысокой чёткости [ 61.79 GB ] Пятое измерение / Push [2009 UHD Blu-Ray EUR 2160p] - [HDR + Dolby Vision] sheker187 Скачать
1 | 0
Ultra HD (UHD: 2K, 4K, 8K) — видео сверхвысокой чёткости [ 48.47 GB ] Пятое измерение / Push [2009 UHD BDRemux 2160p] - [] sheker187 Скачать
1 | 0
Фильмы 2009 [ 745 MB ] Пятое измерение / Push [2009 HDRip] DUB -=Cherry=- Скачать
1 | 0
Фильмы 2009 [ 1.46 GB ] Пятое измерение / Push [2009 HDRip][ лицензия ] SD Скачать
2 | 0

28-11-2019 20:33  

Отключить всю рекламу на сайте

08-01-2012 08:18 Пятое измерение Скачать торрент  

Дайте скорости, плиз!pb.wtf



09-01-2012 06:03 Пятое измерение Скачать торрент  

добрые люди прибавьте скорости, а то качать буду неделю :jcfan: :jcfan:pb.wtf



02-02-2012 09:36 Пятое измерение Скачать торрент  

Наконец-то начали делать класный (Русский DTS-HD Master Audio 7.1 / 48 kHz / 2672 kbps / 16-bit (DTS Core: 5.1 / 48 kHz / 1509 kbps / 16-bit) звук pb.wtf



21-04-2013 22:25 Пятое измерение Скачать торрент  

ДАЙТЕ СКАЧАТЬpb.wtf



08-02-2014 17:41 Пятое измерение Скачать торрент  

скорость по нулямpb.wtf



    Дорогой пользователь! Огромная просьба, поблагодарите релизера, оцените раздачу и оставьте свои комментарий, если Вы скачали Пятое измерение через торрент бесплатно! Внесите свою лепту в развитие PiratBit!
    Комментировать посты могут только пользователи прошедшие не сложную регистрацию
    Показать сообщения:    

    Пятое измерение через торрент
    Скачать бесплатно Пятое измерение
    Пятое измерение скачать торрент
    Пятое измерение смотреть онлайн
    Cкачать фильм Пятое измерение бесплатно
    Пятое измерение скачать торрент в хорошем качестве
    Пятое измерение смотреть онлайн бесплатно в хорошем качестве


    Вы не можете начинать темы
    Вы не можете отвечать на сообщения
    Вы не можете редактировать свои сообщения
    Вы не можете удалять свои сообщения
    Вы не можете голосовать в опросах
    Вы не можете прикреплять файлы к сообщениям
    Вы можете скачивать файлы