Лицензия

MVO

1

1 сезон

Лицензия

Лицензия

13

MVO

1 сезон

Deluxe Edition

pack

Рекомендуем

30

Repack

ВАЖНО

ВАЖНО

Ghostwire

RePack

jed

RePack

fifa19

RePack

RDR2

RePack

NEED FOR SPEED™ PAYBACK

RePack

Кинопоиск HD

 Острые козырьки 6 сезон

6 сезон

FAR CRY 6

RePack

Лицензия

MVO

1

1 сезон

1 сезон

Лицензия

  

Огнедышащий / Firebreather (Питер Чунг / Peter Chung) [2010, фантастика,анимация, BDRip 720p]

Огнедышащий через торрент pb.wtf

Размер: 2.47 GB | Добавлен: 10 лет назад | Торрент скачан:519 раз
Смотреть онлайн Огнедышащий | Скачать   

02-01-2012 14:42 Огнедышащий Скачать торрент  

[font="sans-serif"]Огнедышащий / Firebreather
Presents Страна: США
Жанр: фантастика,анимация
Продолжительность: 01:09:00
Год выпуска: 2010
Перевод: Профессиональный (дублированный) [Cartoon Network]

Перевод 2: Любительский (двухголосый,закадровый)
Русские субтитры: нет
Режиссёр: Питер Чунг / Peter Chung

Описание: История о фрагменте жизни 16-летнего юноши Дункана и его семьи. Мама Дункана обычный человек, а отец является гигантским драконом "кайджу" - древнейшей расы на земле. Дункан хочет, чтобы он был нормальным ребенком в обычной школе. Пока он не понимает, что он что-то очень далекое от нормального...

Семпл: http://multi-up.com/619740

Качество: BDRip 720p
Формат: MKV
Видео: AVC; 1280 x 720; 23,976 fps; 3 877 Kbps
Аудио 1 - [DUB]:AC3 2.0, 48.0 Hz, 2 ch , 192 kbps
Аудио 2 - [DVO]:AC3 5.1, 48.0 Hz, 6 ch, 448 kbps
Аудио 3 - [ENG]:AC3 5.1, 48.0 Hz, 6 ch, 640 kbps
Субтитры: English - softsub (SRT)
Общее
Уникальный идентификатор : 224598934075614020968043174543523950830 (0xA8F82E67251F7C86B694BD94B6B5B0EE)
Полное имя : D:\Огнедыщащий\Firebreather BDRip 720p - DUB [Cartoon Network]\Firebreather.2010.x264.BDRip.720p.mkv
Формат : Matroska
Версия формата : Version 2
Размер файла : 2,47 Гбайт
Продолжительность : 1 ч. 9 м.
Общий поток : 5095 Кбит/сек
Название фильма : sem-fbreather720p
Дата кодирования : UTC 2011-12-27 11:32:44
Программа кодирования : mkvmerge v4.4.0 ('Die Wiederkehr') сборка от Oct 31 2010 21:52:48
Библиотека кодирования : libebml v1.0.0 + libmatroska v1.0.0
Видео
Идентификатор : 1
Формат : AVC
Формат/Информация : Advanced Video Codec
Профиль формата : [email protected]
Параметр CABAC формата : Да
Параметр ReFrames формата : 5 кадров
Идентификатор кодека : V_MPEG4/ISO/AVC
Продолжительность : 1 ч. 9 м.
Вид битрейта : Переменный
Битрейт : 3877 Кбит/сек
Максимальный битрейт : 8000 Кбит/сек
Ширина : 1280 пикс.
Высота : 720 пикс.
Соотношение сторон : 16:9
Частота кадров : 23,976 кадр/сек
Цветовое пространство : YUV
Подвыборка цветности : 4:2:0
Битовая глубина : 8 бит
Тип развёртки : Прогрессивная
Бит/(Пиксели*Кадры) : 0.175
Размер потока : 1,80 Гбайт (73%)
Библиотека кодирования : x264 core 114 r1924 08d04a4
Настройки программы : cabac=1 / ref=5 / deblock=1:0:0 / analyse=0x3:0x133 / me=umh / subme=7 / psy=1 / psy_rd=1.00:0.00 / mixed_ref=1 / me_range=16 / chroma_me=1 / trellis=1 / 8x8dct=1 / cqm=0 / deadzone=21,11 / fast_pskip=1 / chroma_qp_offset=-2 / threads=6 / sliced_threads=0 / nr=0 / decimate=1 / interlaced=0 / constrained_intra=0 / bframes=5 / b_pyramid=0 / b_adapt=1 / b_bias=0 / direct=1 / weightb=1 / open_gop=0 / weightp=2 / keyint=240 / keyint_min=24 / scenecut=40 / intra_refresh=0 / rc_lookahead=40 / rc=2pass / mbtree=1 / bitrate=3877 / ratetol=1.0 / qcomp=0.60 / qpmin=0 / qpmax=69 / qpstep=4 / cplxblur=20.0 / qblur=0.5 / vbv_maxrate=8000 / vbv_bufsize=25000 / nal_hrd=vbr / ip_ratio=1.40 / aq=1:1.00
Аудио #1
Идентификатор : 2
Формат : AC-3
Формат/Информация : Audio Coding 3
Расширение режима : CM (complete main)
Идентификатор кодека : A_AC3
Продолжительность : 1 ч. 9 м.
Вид битрейта : Постоянный
Битрейт : 192 Кбит/сек
Каналы : 2 канала
Расположение каналов : Front: L R
Частота : 48,0 КГц
Битовая глубина : 16 бит
Метод сжатия : С потерями
Размер потока : 95,4 Мбайт (4%)
Аудио #2
Идентификатор : 3
Формат : AC-3
Формат/Информация : Audio Coding 3
Расширение режима : CM (complete main)
Идентификатор кодека : A_AC3
Продолжительность : 1 ч. 9 м.
Вид битрейта : Постоянный
Битрейт : 448 Кбит/сек
Каналы : 6 каналов
Расположение каналов : Front: L C R, Side: L R, LFE
Частота : 48,0 КГц
Битовая глубина : 16 бит
Метод сжатия : С потерями
Размер потока : 223 Мбайт (9%)
Заголовок : DVO AC3 5.1 448 kpbs
Язык : Russian
Аудио #3
Идентификатор : 4
Формат : AC-3
Формат/Информация : Audio Coding 3
Расширение режима : CM (complete main)
Идентификатор кодека : A_AC3
Продолжительность : 1 ч. 9 м.
Вид битрейта : Постоянный
Битрейт : 640 Кбит/сек
Каналы : 6 каналов
Расположение каналов : Front: L C R, Side: L R, LFE
Частота : 48,0 КГц
Битовая глубина : 16 бит
Метод сжатия : С потерями
Размер потока : 318 Мбайт (13%)
Заголовок : Original AC3 5.1 640 kpbs
Язык : English
Текст
Идентификатор : 5
Формат : UTF-8
Идентификатор кодека : S_TEXT/UTF8
Идентификатор кодека/Информация : UTF-8 Plain Text
Язык : English
Меню
00:00:00.000 : en:00:00:00.000
00:08:24.462 : en:00:08:24.462
00:18:59.347 : en:00:18:59.347
00:28:59.905 : en:00:28:59.905
00:38:21.216 : en:00:38:21.216
00:51:06.188 : en:00:51:06.188
00:59:13.133 : en:00:59:13.133
01:06:57.222 : en:01:06:57.222



Скачать Огнедышащий через торрент http://s47.radikal.ru/i117/1105/db/738229b86840.png Скачать, смотреть онлайн Огнедышащий бесплантно в хорошем качестве Описание: История о фрагменте жизни 16-летнего юноши Дункана и его семьи. Мама Дункана обычный человек, а отец является гигантским драконом ... 10 10 6
Info! Золотая раздача, скачанное не засчитывается.
Торрент: Зарегистрирован [2012-01-02 14:42] · скачан: 519 раз
Статус: √ проверено
Размер: 2.47 GB
Как cкачать? Как скачать Огнедышащий через торрент | UTorrent

28-11-2019 20:33  

Отключить вcю реклaмy на сайте

01-09-2012 16:45 Огнедышащий Скачать торрент  

Второй части не ожидается?



    Дорогой пользователь! Огромная просьба, поблагодарите релизера, оцените раздачу и оставьте свои комментарий, если Вы скачали Огнедышащий через торрент бесплатно!!
    Комментировать посты могут только пользователи прошедшие не сложную регистрацию
    Показать сообщения:    


    Огнедышащий через торрент
    Скачать бесплатно Огнедышащий
    Огнедышащий скачать торрент
    Огнедышащий смотреть онлайн
    Cкачать фильм Огнедышащий бесплатно
    Огнедышащий скачать торрент в хорошем качестве
    Огнедышащий смотреть онлайн бесплатно в хорошем качестве
    Вы не можете начинать темы
    Вы не можете отвечать на сообщения
    Вы не можете редактировать свои сообщения
    Вы не можете удалять свои сообщения
    Вы не можете голосовать в опросах
    Вы не можете прикреплять файлы к сообщениям
    Вы можете скачивать файлы