2 сезон

iTunes

MVO

1

2 сезон

iTunes

iTunes

1 сезон

RePack

30

Новинка

ВАЖНО

ИГРА 18+

pack

RePack

MK11
pack

Легкие деньги

RePack

jed

RePack

fifa19

RePack

RDR2

RePack

NEED FOR SPEED™ PAYBACK

4 сезон

9 сезон

Бесстыжие 9 сезон

Все сериалы

все сериалы на PB.wtf

RePack

FAR CRY 5

Anonymous, добрый день, мы не успеваем собрать деньги на оплату серверов за декабрь и январь, помогите нам пожалуйста в это трудное время. В качестве благодарности мы отключим Вам всю рекламу на сайте (укажите свой ник в строку Ваше имя)!

×
  
Magnet ссылка

Новые приключения Аладдина (Александр Игудин) [2011 г., Новогодний мюзикл, сказка, комедия, IPTVRip] pb.wtf

Новые приключения Аладдина через торрент pb.wtf

Размер: 1.89 GB | Добавлен: 9 лет назад | Торрент скачан:222 раза
Скачать  

02-01-2012 16:59 Новые приключения Аладдина Скачать торрент  

Новые приключения Аладдина

Год выпуска: 2011
Страна: Россия
Жанр: Новогодний мюзикл, сказка, комедия
Продолжительность: 01:40:26
Перевод: Не требуется

Режиссер: Александр Игудин

В ролях: Юрий Стоянов, Оскар Кучера, Юрий Гальцев, Анна Семенович, Владимир Зеленский, Филипп Киркоров, Андрей Данилко, Анастасия Стоцкая, Николай Басков, Елена Воробей, Ани Лорак, Лолита, Сергей Лазарев, Ефим Шифрин

Описание: На телеканале "Россия" в самый канун нового года по традиции - старая сказка на новый лад!
В экранизации любимой всеми арабской сказки роль Аладдина досталась Оскару Кучере. По замыслу авторов, Аладдин - это... русский охранник Алеша, который волей случая попал в далекую страну, где и получил это имя и, конечно же, нашел свою царевну - великолепную Будур (Ани Лорак). Роль Джина неожиданно трансформировалась в женский образ в исполнении Андрея Данилко, а ковер-самолет превратился в салон самолета.
Юрию Стоянову предстоит воплотить на экране целых три образа - бортпроводницы, сказочного генерала и дворцового гида. Звезды "Аншлага" Владимир Моисеенко и Владимир Данилец предстанут в образах стражников, а Юрий Гальцев превратится в султана.
Исполнять кавер-версии отечественных и зарубежных поп-хитов в мюзикле также будут: Сергей Лазарев, Анастасия Стоцкая, Анна Семенович, Владимир Зеленский, Лолита, Елена Воробей, Юрий Гальцев, Ефим Шифрин и многие другие.

Доп. информация:
Субтитры: Нет

Реклама в видеофайле: Отсутствует

Качество: IPTRip
Формат: AVI
Видео кодек: XviD
Аудио кодек: MP3
Видео: 720x432 (1.67:1), 25 fps, XviD build 50 ~2491 kbps avg, 0.32 bit/pixel
Аудио: 48 kHz, MPEG Layer 3, 2 ch, ~192.00 kbps avg

Общее
Полное имя : D:\DVD\Novye.priklyucheniya.Aladdina.2011.XviD.IPTVRip-KinoZalSat.avi
Формат : AVI
Формат/Информация : Audio Video Interleave
Размер файла : 1,89 Гбайт
Продолжительность : 1 ч. 40 м.
Общий поток : 2694 Кбит/сек
Программа кодирования : VirtualDubMod 1.5.10.3 | www.virtualdub-fr.org || (build 2550/release)
Библиотека кодирования : VirtualDubMod build 2550/release

Видео
Идентификатор : 0
Формат : MPEG-4 Visual
Профиль формата : Advanced Simple@L5
Параметр BVOP формата : 1
Параметр QPel формата : Нет
Параметр GMC формата : Без точки перехода
Параметр матрицы формата : Default (H.263)
Идентификатор кодека : XVID
Идентификатор кодека/Подсказка : XviD
Продолжительность : 1 ч. 40 м.
Битрейт : 2492 Кбит/сек
Ширина : 720 пикс.
Высота : 432 пикс.
Соотношение сторон : 1,667
Частота кадров : 25,000 кадр/сек
Цветовое пространство : YUV
Подвыборка цветности : 4:2:0
Битовая глубина : 8 бит
Тип развёртки : Прогрессивная
Метод сжатия : С потерями
Бит/(Пиксели*Кадры) : 0.320
Размер потока : 1,75 Гбайт (93%)
Библиотека кодирования : XviD 1.2.1 (UTC 2008-12-04)

Аудио
Идентификатор : 1
Формат : MPEG Audio
Версия формата : Version 1
Профиль формата : Layer 3
Идентификатор кодека : 55
Идентификатор кодека/Подсказка : MP3
Продолжительность : 1 ч. 40 м.
Вид битрейта : Постоянный
Битрейт : 192 Кбит/сек
Канал(ы) : 2 канала(ов)
Частота : 48,0 КГц
Метод сжатия : С потерями
Размер потока : 138 Мбайт (7%)
Выравнивание : Соединение по промежуткам
Продолжительность промежутка : 40 мс. (1,00 видеокадр)
Время предзагрузки промежутка : 504 ms
Библиотека кодирования : LAME3.98r
Настройки программы : -m s -V 4 -q 2 -lowpass 18.6 -b 192





pb.wtf



Скачать Новые приключения Аладдина через торрент http://i31.fastpic.ru/big/2012/0102/6e/cca9d490ee6ada07dff4734a60a9ab6e.jpg Скачать фильм Новые приключения Аладдина через торрент бесплантно в хорошем качестве Описание: На телеканале "Россия" в самый канун нового года по традиции - старая сказка на новый лад! В экранизации любимой всеми арабской ... 10 10 1
Info! Золотая раздача, скачанное не засчитывается.
Торрент: Зарегистрирован [2012-01-02 16:59] · скачан: 222 раз
Статус: √ проверено
Размер: 1.89 GB
Как cкачать? Как скачать Новые приключения Аладдина через торрент | UTorrent

% Раздел Тема Автор DL S | L
Фильмы 2015 [DVDrip, WEB-DLRip, HDrip] [ 747 MB ] Новые Аладдина / Les nouvelles aventures d'Aladin [2015 Бельгия HDRip by _Один_777] Dub () Один 777 Скачать
2 | 0
Фильмы 2015 [DVDrip, WEB-DLRip, HDrip] [ 1.37 GB ] Новые Аладдина / Les nouvelles aventures d'Aladin [2015 HDRip] $-DRON-$ Скачать
2 | 0
T Фильмы [HD 720p, 1080p] (Хороший звук DUB, MVO) [ 4.66 GB ] Новые Аладдина / Les nouvelles aventures d'Aladin [2015 BDRip 720p ] $-DRON-$ Скачать
1 | 0

28-11-2019 20:33  

Отключить всю рекламу на сайте

    Дорогой пользователь! Огромная просьба, поблагодарите релизера, оцените раздачу и оставьте свои комментарий, если Вы скачали Новые приключения Аладдина через торрент бесплатно! Внесите свою лепту в развитие PiratBit!
    Комментировать посты могут только пользователи прошедшие не сложную регистрацию
    Показать сообщения:    

    Новые приключения Аладдина через торрент
    Скачать бесплатно Новые приключения Аладдина
    Новые приключения Аладдина скачать торрент
    Новые приключения Аладдина смотреть онлайн
    Cкачать фильм Новые приключения Аладдина бесплатно
    Новые приключения Аладдина скачать торрент в хорошем качестве
    Новые приключения Аладдина смотреть онлайн бесплатно в хорошем качестве


    Вы не можете начинать темы
    Вы не можете отвечать на сообщения
    Вы не можете редактировать свои сообщения
    Вы не можете удалять свои сообщения
    Вы не можете голосовать в опросах
    Вы не можете прикреплять файлы к сообщениям
    Вы можете скачивать файлы