Ссылка на приватное зеркало нашего сайта всего за 1$. Внимание количество ограничено!!!

2 сезон

iTunes

1 сезон

1

iTunes

iTunes

iTunes

1 сезон

RePack

30

ИГРА 18+

pack

ВАЖНО

!!Акция!!

Alien_RageХит недели

RePack

MK11
pack

Забери бонус

RePack

jed

!!Акция!!

Alien_Rage

RePack

fifa19

RePack

Assassins Creed: Odyssey

RePack

NEED FOR SPEED™ PAYBACK

4 сезон

9 сезон

Бесстыжие 9 сезон

Все сериалы

все сериалы на PB.wtf

RePack

FAR CRY 5
  

Молодым без толку / Тупая школота / Wasted on the Young (Бен С. Лукас / Ben C. Lucas) [2010, Австралия, триллер, драма, BDRip 1080p] pb.wtf

Молодым без толку через торрент pb.wtf

Размер: 8.88 GB | Добавлен: 8 лет 9 мес. назад | Торрент скачан:27 раз
Скачать  

09-01-2012 17:14 Молодым без толку Скачать торрент  


Молодым без толку / Тупая школота / Wasted on the Young


Страна: Австралия
Жанр: триллер, драма
Год выпуска: 2010
Продолжительность: 01:36:56
Перевод: Любительский (многоголосый закадровый) RG.Paravozik
Cубтитры: Английские, Греческие, Испанские, Румынские
Оригинальная аудиодорожка: английский
Режиссер: Бен С. Лукас / Ben C. Lucas
В ролях: Оливер Экланд, Аделаида Клеменс, Алекс Расселл, Натан Коенен, Патрик Каллен, Джорджина Хэйг,Джеральдина Хаквилл, Тиджей Пауэр, Джессика Равнслей, Уилл Симпсони
Описание: Австралийский студент вынужден действовать, когда группа «золотых мальчиков» из его школы, надругавшись и накачав наркотиками, оставляют умирать его лучшую подругу. Как не удивительно, но она возвращается ожив и начинает напоминать о том, что они сделали.
Доп. информация: кинопоиск || IMDB
Тип релиза: BDRip 1080p - СЭМПЛ
Контейнер: MKV
Видео кодек: AVC
Аудио кодек: AC-3, DTS
Видео: MPEG-4 AVC Video 11.4 Mbps 1920 x 814 p / 24 fps / 2.35 : 1 / High Profile 4.1
Аудио: Dolby Digital Audio Russian 640 kbps 2.0 / 48 kHz / 192 kbps
Аудио: DTS Audio English 1536 kbps 5.1 / 48 kHz / 1536 kbps / 24-bit
Код: General
Complete name : F:\ -= Фильмы =-\Тупая школота (2010. Wasted on the Young).mkv
Format : Matroska
File size : 8.88 GiB
Duration : 1h 36mn
Overall bit rate : 13.1 Mbps
Movie name : Wasted.on.the.Young.2010.Blu-ray.1080p.x264.DTS.MySilu [rutracker.org]
Encoded date : UTC 2012-01-09 10:28:18
Writing application : mkvmerge v4.9.1 ('Ich will') сборка от Jul 11 2011 23:53:15
Writing library : libebml v1.2.1 + libmatroska v1.1.1
Video
ID : 1
Format : AVC
Format/Info : Advanced Video Codec
Format profile : High@L4.1
Format settings, CABAC : Yes
Format settings, ReFrames : 4 frames
Muxing mode : Container profile=Unknown@4.1
Codec ID : V_MPEG4/ISO/AVC
Duration : 1h 36mn
Bit rate : 11.4 Mbps
Width : 1 920 pixels
Height : 814 pixels
Display aspect ratio : 2.35:1
Frame rate : 24.000 fps
Color space : YUV
Chroma subsampling : 4:2:0
Bit depth : 8 bits
Scan type : Progressive
Bits/(Pixel*Frame) : 0.304
Stream size : 7.55 GiB (85%)
Title : Wasted.on.the.Young.2010.Blu-ray.1080p.x264.DTS.MySilu
Writing library : x264 core 120 r2120 0c7dab9
Encoding settings : cabac=1 / ref=4 / deblock=1:-2:-2 / analyse=0x3:0x113 / me=umh / subme=10 / psy=1 / psy_rd=1.20:0.20 / mixed_ref=1 / me_range=32 / chroma_me=1 / trellis=2 / 8x8dct=1 / cqm=0 / deadzone=21,11 / fast_pskip=0 / chroma_qp_offset=-3 / threads=6 / sliced_threads=0 / nr=0 / decimate=0 / interlaced=0 / bluray_compat=0 / constrained_intra=0 / bframes=5 / b_pyramid=2 / b_adapt=2 / b_bias=0 / direct=3 / weightb=1 / open_gop=0 / weightp=2 / keyint=250 / keyint_min=2 / scenecut=40 / intra_refresh=0 / rc_lookahead=72 / rc=2pass / mbtree=1 / bitrate=11411 / ratetol=1.0 / qcomp=0.60 / qpmin=10 / qpmax=51 / qpstep=4 / cplxblur=20.0 / qblur=0.5 / vbv_maxrate=38000 / vbv_bufsize=38000 / nal_hrd=none / ip_ratio=1.40 / aq=1:1.00
Language : English
Audio #1
ID : 2
Format : AC-3
Format/Info : Audio Coding 3
Mode extension : CM (complete main)
Codec ID : A_AC3
Duration : 1h 36mn
Bit rate mode : Constant
Bit rate : 192 Kbps
Channel(s) : 2 channels
Channel positions : Front: L R
Sampling rate : 48.0 KHz
Bit depth : 16 bits
Stream size : 133 MiB (1%)
Title : MVO [RG Paravozik]
Language : Russian
Audio #2
ID : 3
Format : DTS
Format/Info : Digital Theater Systems
Codec ID : A_DTS
Duration : 1h 36mn
Bit rate mode : Constant
Bit rate : 1 510 Kbps
Channel(s) : 6 channels
Channel positions : Front: L C R, Side: L R, LFE
Sampling rate : 48.0 KHz
Bit depth : 16 bits
Stream size : 1.02 GiB (12%)
Language : English
Text #1
ID : 4
Format : UTF-8
Codec ID : S_TEXT/UTF8
Codec ID/Info : UTF-8 Plain Text
Language : English
Text #2
ID : 5
Format : UTF-8
Codec ID : S_TEXT/UTF8
Codec ID/Info : UTF-8 Plain Text
Language : Greek
Text #3
ID : 6
Format : UTF-8
Codec ID : S_TEXT/UTF8
Codec ID/Info : UTF-8 Plain Text
Language : Romanian
Text #4
ID : 7
Format : UTF-8
Codec ID : S_TEXT/UTF8
Codec ID/Info : UTF-8 Plain Text
Language : Spanish
RELEASE.NAME...: Wasted.on.the.Young.2010.Blu-ray.1080p.x264.DTS.MySilu
RELEASE.TIME...: Fri Dec 23 23:11:13 2011
IMDB.LINK......: http://www.imdb.com/title/tt1647483/
IMDB.RATE......: 5.9/10 from 743 users
FILM.GENRE.....: Drama | Thriller
RUN.TIME.......: 96 mins 57 seconds
SIZE...........: 8.75 GiB
CONTAINER......: mkv
VIDEO..........: AVC High@L4.1 CABAC=Yes RefFrames=4
FRAME.RATE.....: 24.000 fps
BIT.RATE.......: 11.4 Mbps
ENCODED.LIBRARY: x264 core 120 r2120 0c7dab9
RESOLUTION.....: 1920 x 814
ASPECT.RATIO...: 2.35
AUDIO..........: DTS 5.1 48.0 KHz 1 536 Kbps English
pb.wtf



Скачать Молодым без толку через торрент http://i29.fastpic.ru/big/2011/1209/8a/a86696ede38a7d027a7e352d4e515e8a.jpg Скачать фильм Молодым без толку через торрент бесплантно в хорошем качестве Описание: Австралийский студент вынужден действовать, когда группа «золотых мальчиков» из его школы, надругавшись и накачав наркотиками, ... 3 10 3
Info! Золотая раздача, скачанное не засчитывается.
Торрент: Зарегистрирован [2012-01-09 17:14] · скачан: 27 раз
Статус: T временная
Размер: 8.88 GB
Как cкачать? Как скачать Молодым без толку через торрент | qTorrent

% Раздел Тема Автор DL S | L
Фильмы 2010 [ 721 MB ] Тупая школота/ Молодым без толку / Wasted on the Young [2010 DVDRip] MrKuzj Скачать
1 | 0

28-11-2019 20:33  

Отключить всю рекламу на сайте

    Дорогой пользователь! Огромная просьба, поблагодарите релизера, оцените раздачу и оставьте свои комментарий, если Вы скачали Молодым без толку через торрент бесплатно! Внесите свою лепту в развитие PiratBit!
    Комментировать посты могут только пользователи прошедшие не сложную регистрацию
    Показать сообщения:    

    Молодым без толку через торрент
    Скачать бесплатно Молодым без толку
    Молодым без толку скачать торрент
    Молодым без толку смотреть онлайн
    Cкачать фильм Молодым без толку бесплатно
    Молодым без толку скачать торрент в хорошем качестве
    Молодым без толку смотреть онлайн бесплатно в хорошем качестве


    Вы не можете начинать темы
    Вы не можете отвечать на сообщения
    Вы не можете редактировать свои сообщения
    Вы не можете удалять свои сообщения
    Вы не можете голосовать в опросах
    Вы не можете прикреплять файлы к сообщениям
    Вы можете скачивать файлы