Ссылка на приватное зеркало нашего сайта всего за 1$. Внимание количество ограничено!!!

2 сезон

iTunes

1 сезон

1

iTunes

iTunes

iTunes

1 сезон

RePack

30

ИГРА 18+

pack

ВАЖНО

!!Акция!!

Alien_RageХит недели

RePack

MK11
pack

Забери бонус

RePack

jed

!!Акция!!

Alien_Rage

RePack

fifa19

RePack

Assassins Creed: Odyssey

RePack

NEED FOR SPEED™ PAYBACK

4 сезон

9 сезон

Бесстыжие 9 сезон

Все сериалы

все сериалы на PB.wtf

RePack

FAR CRY 5
  

Мёртвоголовые / Deadheads (Бретт Пирс / Brett Pierce, Дрю Т. Пирс / Drew T. Pierce) [2011, США, ужасы, комедия, приключения, BDRip 720p] pb.wtf

Мёртвоголовые через торрент pb.wtf

Размер: 6 GB | Добавлен: 8 лет 9 мес. назад | Торрент скачан:90 раз
Скачать  

09-01-2012 17:19 Мёртвоголовые Скачать торрент  


Мёртвоголовые / Deadheads
Страна: США
Жанр: Ужасы, комедия, приключения
Год выпуска: 2011
Продолжительность: 1:34:50
Перевод: Любительский (Одноголосый закадровый) Den904
Cубтитры: английские
Оригинальная аудиодорожка: английский
Режиссер: Бретт Пирс / Brett Pierce, Дрю Т. Пирс / Drew T. Pierce
В ролях: Росс Киддер, Маркус Тейлор, Томас Джалассо, Натали Виктория, Бенжамин Уэбстер, Грег Дау, Леонард Келли-Янг и др.
Описание: Два мертвеца, Майк и Брент, восстали из мертвых и теперь они зомби. Парни отправляются на поиски потерянной любви, которую так и не обрели при жизни. Они решают путешествовать автостопом через страну, и их на пути ожидают смешные ситуации и захватывающие приключения!
Доп. информация: русская дорожка получена наложением чистого голоса на оригинал. Спасибо Den904 за предоставленный чистый голос.
кинопоиск || IMDB
Качество видео: BDRip 720p - СЭМПЛ
Формат видео: MKV
Видео: MPEG-4 AVC Video 6039 kbps 1280 x 720 p / 23,976 fps / 16:9 / High Profile 4.1
Видео кодек: AVC
Аудио кодек: DTS
Аудио: DTS Audio Russian 5.1 / 48 kHz / 1509 kbps / 16-bit
Аудио: DTS Audio English 5.1 / 48 kHz / 1509 kbps / 16-bit
Код:General
Complete name : F:\ -= Фильмы =-\Мёртвоголовые (2011. Deadheads) 720p.mkv
Format : Matroska
File size : 6.00 GiB
Duration : 1h 34mn
Overall bit rate : 9 059 Kbps
Movie name : DeadHeads.2011.BluRay.720p.DTS.x264-CHD [rutracker.org]
Encoded date : UTC 2012-01-09 06:08:41
Writing application : mkvmerge v4.9.1 ('Ich will') сборка от Jul 11 2011 23:53:15
Writing library : libebml v1.2.1 + libmatroska v1.1.1
Video
ID : 1
Format : AVC
Format/Info : Advanced Video Codec
Format profile : High@L4.1
Format settings, CABAC : Yes
Format settings, ReFrames : 9 frames
Muxing mode : Container profile=Unknown@4.1
Codec ID : V_MPEG4/ISO/AVC
Duration : 1h 34mn
Bit rate : 6 039 Kbps
Width : 1 280 pixels
Height : 720 pixels
Display aspect ratio : 16:9
Frame rate : 23.976 fps
Color space : YUV
Chroma subsampling : 4:2:0
Bit depth : 8 bits
Scan type : Progressive
Bits/(Pixel*Frame) : 0.273
Stream size : 3.88 GiB (65%)
Title : DeadHeads.2011.BluRay.720p.DTS.x264-CHD
Writing library : x264 core 102 r1666 d058f37
Encoding settings : cabac=1 / ref=9 / deblock=1:-3:-3 / analyse=0x3:0x113 / me=umh / subme=10 / psy=1 / psy_rd=1.05:0.10 / mixed_ref=1 / me_range=32 / chroma_me=1 / trellis=2 / 8x8dct=1 / cqm=2 / deadzone=21,11 / fast_pskip=0 / chroma_qp_offset=-2 / threads=6 / sliced_threads=0 / nr=0 / decimate=1 / interlaced=0 / constrained_intra=0 / bframes=6 / b_pyramid=2 / b_adapt=2 / b_bias=0 / direct=3 / weightb=1 / open_gop=0 / weightp=2 / keyint=250 / keyint_min=25 / scenecut=40 / intra_refresh=0 / rc_lookahead=40 / rc=2pass / mbtree=1 / bitrate=6039 / ratetol=1.0 / qcomp=0.60 / qpmin=10 / qpmax=51 / qpstep=4 / cplxblur=20.0 / qblur=0.5 / vbv_maxrate=50000 / vbv_bufsize=50000 / ip_ratio=1.40 / aq=1:0.80 / nal_hrd=none
Language : English
Audio #1
ID : 2
Format : DTS
Format/Info : Digital Theater Systems
Codec ID : A_DTS
Duration : 1h 34mn
Bit rate mode : Constant
Bit rate : 1 510 Kbps
Channel(s) : 6 channels
Channel positions : Front: L C R, Side: L R, LFE
Sampling rate : 48.0 KHz
Bit depth : 16 bits
Stream size : 1.00 GiB (17%)
Title : VO [den904]
Language : Russian
Audio #2
ID : 3
Format : DTS
Format/Info : Digital Theater Systems
Codec ID : A_DTS
Duration : 1h 34mn
Bit rate mode : Constant
Bit rate : 1 510 Kbps
Channel(s) : 6 channels
Channel positions : Front: L C R, Side: L R, LFE
Sampling rate : 48.0 KHz
Bit depth : 24 bits
Stream size : 1.00 GiB (17%)
Language : English
Text
ID : 4
Format : UTF-8
Codec ID : S_TEXT/UTF8
Codec ID/Info : UTF-8 Plain Text
Language : English
Menu
00:00:00.000 : en:00:00:00.000
00:08:17.997 : en:00:08:17.997
00:16:34.243 : en:00:16:34.243
00:23:43.088 : en:00:23:43.088
00:31:05.781 : en:00:31:05.781
00:39:05.510 : en:00:39:05.510
00:46:17.692 : en:00:46:17.692
00:56:17.457 : en:00:56:17.457
01:03:28.930 : en:01:03:28.930
01:13:03.796 : en:01:13:03.796
01:18:21.030 : en:01:18:21.030
01:26:07.954 : en:01:26:07.954
DeadHeads.2011.BluRay.720p.DTS.x264-CHD
ENCODER.........: Jobs@CHD
RELEASE DATE....: 12/04/2011
THEATRE DATE....: 00/00/2011
GENRE...........: Adventure | Comedy | Horror
SOURCE .........: 1080p GER Blu-ray AVC DTS-HD MA 5.1
ViDEO BiTRATE...: x264 @ 6039 Kbps
RESOLUTiON......: 1280 x 720
ASPECT RATiO....: 1.78 : 1
FRAME RATE......: 23.976 fps
RUNTiME.........: 95 mins
AUDiO BiTRATE...: DTS @ 1509 Kbps
LANGUAGE........: English
SUBTiTLES.......: None
FilE SiZE.......: 5,244,079 KB
iMDB URL........:
http://www.imdb.com/title/tt1273207/
iMDB RATiNG.....: 5.2/10 (506 votes)
pb.wtf



Скачать Мёртвоголовые через торрент http://i28.fastpic.ru/big/2012/0104/c4/e6fcfdb4150c7a9c1b97ddf139940dc4.jpg Скачать фильм Мёртвоголовые через торрент бесплантно в хорошем качестве Описание: Два мертвеца, Майк и Брент, восстали из мертвых и теперь они зомби. Парни отправляются на поиски потерянной любви, которую так и ... 3.9 10 8
Info! Золотая раздача, скачанное не засчитывается.
Торрент: Зарегистрирован [2012-01-09 17:19] · скачан: 90 раз
Статус: T временная
Размер: 6 GB
Как cкачать? Как скачать Мёртвоголовые через торрент | qTorrent

% Раздел Тема Автор DL S | L
Фильмы 2011 [ 1.37 GB ] Мёртвоголовые / Deadheads [2011 ] makarevich Скачать
1 | 0
Фильмы 2011 [ 746 MB ] Мёртвоголовые / DeadHeads [2011 HDRip] coc900 Скачать
1 | 0

28-11-2019 20:33  

Отключить всю рекламу на сайте

09-01-2012 17:59 Мёртвоголовые Скачать торрент  

брееедpb.wtf



09-01-2012 18:49 Мёртвоголовые Скачать торрент  

трешачокpb.wtf



09-01-2012 19:03 Мёртвоголовые Скачать торрент  

Да не очень конечно!Но серавно афтору благодарочка!pb.wtf



09-01-2012 21:54 Мёртвоголовые Скачать торрент  

автору спасибо но фильм отстойpb.wtf



09-01-2012 22:13 Мёртвоголовые Скачать торрент  

а меня как ни странно прикололо кинцо.. трешачок как трешачок.так в полглаза вполне смотрибельно)pb.wtf



    Дорогой пользователь! Огромная просьба, поблагодарите релизера, оцените раздачу и оставьте свои комментарий, если Вы скачали Мёртвоголовые через торрент бесплатно! Внесите свою лепту в развитие PiratBit!
    Комментировать посты могут только пользователи прошедшие не сложную регистрацию
    Показать сообщения:    

    Мёртвоголовые через торрент
    Скачать бесплатно Мёртвоголовые
    Мёртвоголовые скачать торрент
    Мёртвоголовые смотреть онлайн
    Cкачать фильм Мёртвоголовые бесплатно
    Мёртвоголовые скачать торрент в хорошем качестве
    Мёртвоголовые смотреть онлайн бесплатно в хорошем качестве


    Вы не можете начинать темы
    Вы не можете отвечать на сообщения
    Вы не можете редактировать свои сообщения
    Вы не можете удалять свои сообщения
    Вы не можете голосовать в опросах
    Вы не можете прикреплять файлы к сообщениям
    Вы можете скачивать файлы