Ссылка на приватное зеркало нашего сайта всего за 1$. Внимание количество ограничено!!!

2 сезон

iTunes

1 сезон

1

iTunes

iTunes

iTunes

1 сезон

RePack

30

ИГРА 18+

pack

ВАЖНО

!!Акция!!

Alien_RageХит недели

RePack

MK11
pack

Забери бонус

RePack

jed

!!Акция!!

Alien_Rage

RePack

fifa19

RePack

Assassins Creed: Odyssey

RePack

NEED FOR SPEED™ PAYBACK

4 сезон

9 сезон

Бесстыжие 9 сезон

Все сериалы

все сериалы на PB.wtf

RePack

FAR CRY 5
  

Стойя - Интернет-шлюха / Stoya Web Whore (Robby D) [2009 г., Vignettes, Straight, Blu-Ray, 1080p., лицензия] pb.wtf

Стойя - Интернет-шлюха через торрент pb.wtf

Размер: 20.54 GB | Добавлен: 8 лет 9 мес. назад | Торрент скачан:101 раз
Скачать  

09-01-2012 22:32 Стойя - Интернет-шлюха Скачать торрент  

Стойя - Интернет-шлюха / Stoya Web Whore

Год выпуска: 2009
Страна: USA
Жанр: Vignettes, Straight
Продолжительность: 1:55:30
Тип релиза: Лицензия

Режиссер: Robby D

В ролях: Alexis Texas • Erik Everhard • James Deen • Kagney Linn Karter • Manuel Ferrara • Mick Blue • ebecca Blue • Scott Nails • Stoya • Tommy Gunn

Описание: Gorgeous and sinful Stoya slips under the spell of lust, captivated by her new roommate, and hungry for passionate encounters. Mick Blue plays a naughty game of chasing tail, toying with romantic pursuits and hot sex with wet and wild chicks. Stoya dives in, feeding right into his lap, playing him for all his well endowed worth, until they come together and even the score.

Качество: Blu-Ray 1080p
Видео кодек: AVC
Аудио кодек: AC3
Видео: 1920 x 1080p, 19.1 Mbps, 23.976 fps
Аудио: 640 Kbps, 48.0 kHz, 6 channels

Код:

General
ID                               : 0
Complete name                    : STOYA_WEB_WHORE_BD\BDMV\STREAM\00002.m2ts
Format                           : BDAV
Format/Info                      : Blu-ray Video
File size                        : 16.6 GiB
Duration                         : 1h 55mn
Overall bit rate                 : 20.6 Mbps
Maximum Overall bit rate         : 48.0 Mbps

Video
ID                               : 4113 (0x1011)
Menu ID                          : 1 (0x1)
Format                           : AVC
Format/Info                      : Advanced Video Codec
Format profile                   : High@L4.1
Format settings, CABAC           : Yes
Format settings, ReFrames        : 4 frames
Codec ID                         : 27
Duration                         : 1h 55mn
Bit rate mode                    : Variable
Bit rate                         : 19.1 Mbps
Maximum bit rate                 : 25.0 Mbps
Width                            : 1 920 pixels
Height                           : 1 080 pixels
Display aspect ratio             : 16:9
Frame rate                       : 23.976 fps
Standard                         : NTSC
Color space                      : YUV
Chroma subsampling               : 4:2:0
Bit depth                        : 8 bits
Scan type                        : Progressive
Bits/(Pixel*Frame)               : 0.385
Stream size                      : 15.4 GiB (93%)
Color primaries                  : BT.709-5, BT.1361, IEC 61966-2-4, SMPTE RP177
Transfer characteristics         : BT.709-5, BT.1361
Matrix coefficients              : BT.709-5, BT.1361, IEC 61966-2-4 709, SMPTE RP177

Audio
ID                               : 4352 (0x1100)
Menu ID                          : 1 (0x1)
Format                           : AC-3
Format/Info                      : Audio Coding 3
Mode extension                   : CM (complete main)
Codec ID                         : 129
Duration                         : 1h 55mn
Bit rate mode                    : Constant
Bit rate                         : 640 Kbps
Channel(s)                       : 6 channels
Channel positions                : Front: L C R, Side: L R, LFE
Sampling rate                    : 48.0 KHz
Bit depth                        : 16 bits
Stream size                      : 529 MiB (3%)

pb.wtf



pack Скачать Стойя - Интернет-шлюха через торрент http://i31.fastpic.ru/big/2011/1231/da/cfeb052e97d040ea6f174bca1f48f6da.jpg Скачать фильм Стойя - Интернет-шлюха через торрент бесплантно в хорошем качестве Описание: Gorgeous and sinful Stoya slips under the spell of lust, captivated by her new roommate, and hungry for passionate encounters. ... 10 10 1
Info! Золотая раздача, скачанное не засчитывается.
Торрент: Зарегистрирован [2012-01-10 11:35] · скачан: 101 раз
Статус: √ проверено
Размер: 20.54 GB
Как cкачать? Как скачать Стойя - Интернет-шлюха через торрент | qTorrent



Последний раз редактировалось: Shaidi (2012-01-10 11:32), всего редактировалось 2 раз(а)

28-11-2019 20:33  

Отключить всю рекламу на сайте

10-01-2012 09:26 Стойя - Интернет-шлюха Скачать торрент  

Качество: Blu-Raypb.wtf



pack
    Дорогой пользователь! Огромная просьба, поблагодарите релизера, оцените раздачу и оставьте свои комментарий, если Вы скачали Стойя - Интернет-шлюха через торрент бесплатно! Внесите свою лепту в развитие PiratBit!
    Комментировать посты могут только пользователи прошедшие не сложную регистрацию
    Показать сообщения:    

    Стойя - Интернет-шлюха через торрент
    Скачать бесплатно Стойя - Интернет-шлюха
    Стойя - Интернет-шлюха скачать торрент
    Стойя - Интернет-шлюха смотреть онлайн
    Cкачать фильм Стойя - Интернет-шлюха бесплатно
    Стойя - Интернет-шлюха скачать торрент в хорошем качестве
    Стойя - Интернет-шлюха смотреть онлайн бесплатно в хорошем качестве


    Вы не можете начинать темы
    Вы не можете отвечать на сообщения
    Вы не можете редактировать свои сообщения
    Вы не можете удалять свои сообщения
    Вы не можете голосовать в опросах
    Вы не можете прикреплять файлы к сообщениям
    Вы можете скачивать файлы