Ссылка на приватное зеркало нашего сайта всего за 1$. Внимание количество ограничено!!!

2 сезон

iTunes

1 сезон

1

2 сезон

2 сезон

iTunes

1 сезон

RePack

30

Ultimate

ВАЖНО

ИГРА 18+

pack

RePack

MK11
pack

Забери бонус

RePack

jed

!!Акция!!

Alien_Rage

RePack

fifa19

RePack

Assassins Creed: Odyssey

RePack

NEED FOR SPEED™ PAYBACK

4 сезон

9 сезон

Бесстыжие 9 сезон

Все сериалы

все сериалы на PB.wtf

RePack

FAR CRY 5
  

Яна Кова : Непристойное Видео / Jana Cova Video Nasty (Celeste) [2007 г., Vignettes, Straight, Girl-Girl, BDRip (720p), лицензия] pb.wtf

Яна Кова : Непристойное Видео через торрент pb.wtf

Размер: 4.37 GB | Добавлен: 8 лет 10 мес. назад | Торрент скачан:195 раз
Скачать  

09-01-2012 22:41 Яна Кова : Непристойное Видео Скачать торрент  

Яна Кова : Непристойное Видео / Jana Cova Video Nasty

Год выпуска: 2007
Страна: USA
Жанр: Vignettes, Straight, Girl-Girl
Продолжительность: 01:53:10
Тип релиза: Лицензия

Режиссер: Celeste

В ролях: Jana Cova • Alexis Texas • Sammie Rhodes • Adrianna Nicole • Paris Gables • Lisa Daniels • Shay Jordan • Andie Valentino • Marco Banderas • Tommy Gunn • Jerry • Tony DeSergio

Описание: Jana Cova and Shay Jordan make crazy-sex together in Digital Playground's brand new Video Nasty Series. Jana is delicious in three heart pounding, charged scenes, making good on her promise to spend more time on camera. Contract sister, Shay Jordan sets the lovely Jana straight and teaches her a few things about COCK. With a breathtaking all-star cast that includes Heather Gables, Lisa Daniels, Alexis Texas, Sammie Rhodes, Andie Valentino and Adrianna Nicole, Jana and Shay are at their nastiest best. Director Celeste guarantees you will enjoy anal, all girl orgies, girl / girl, and boy / girl with natural sounds, genius cinematography and delightfully fun extras.

Качество: BDRip (720p)
Формат: MKV
Видео кодек: AVC
Аудио кодек: AC3
Видео: x264, 1280 x 720p, 5082 Kbps, 29.97 fps
Аудио: AC3, 448 Kbps, 48.0 kHz, 6 channels

Код:

General
Complete name                    : hdp-jcvn720p.mkv
Format                           : Matroska
File size                        : 4.37 GiB
Duration                         : 1h 53mn
Overall bit rate                 : 5 532 Kbps
Encoded date                     : UTC 2011-12-31 06:21:40
Writing application              : mkvmerge v5.2.0 ('I can't explain') built on Dec 18 2011 18:12:03
Writing library                  : libebml v1.2.3 + libmatroska v1.3.0

Video
ID                               : 1
Format                           : AVC
Format/Info                      : Advanced Video Codec
Format profile                   : High@L4.1
Format settings, CABAC           : Yes
Format settings, ReFrames        : 5 frames
Codec ID                         : V_MPEG4/ISO/AVC
Duration                         : 1h 53mn
Bit rate                         : 5 082 Kbps
Width                            : 1 280 pixels
Height                           : 720 pixels
Display aspect ratio             : 16:9
Frame rate                       : 29.970 fps
Color space                      : YUV
Chroma subsampling               : 4:2:0
Bit depth                        : 8 bits
Scan type                        : Progressive
Bits/(Pixel*Frame)               : 0.184
Stream size                      : 3.93 GiB (90%)
Writing library                  : x264 core 120 r2120 0c7dab9
Encoding settings                : cabac=1 / ref=5 / deblock=1:0:0 / analyse=0x3:0x133 / me=umh / subme=7 / psy=1 / psy_rd=1.00:0.00 / mixed_ref=1 / me_range=16 / chroma_me=1 / trellis=1 / 8x8dct=1 / cqm=0 / deadzone=21,11 / fast_pskip=1 / chroma_qp_offset=-4 / threads=12 / sliced_threads=0 / nr=0 / decimate=1 / interlaced=0 / bluray_compat=0 / constrained_intra=0 / bframes=3 / b_pyramid=2 / b_adapt=1 / b_bias=0 / direct=1 / weightb=1 / open_gop=0 / weightp=2 / keyint=250 / keyint_min=25 / scenecut=40 / intra_refresh=0 / rc_lookahead=40 / rc=2pass / mbtree=1 / bitrate=5082 / ratetol=1.0 / qcomp=0.60 / qpmin=0 / qpmax=69 / qpstep=4 / cplxblur=20.0 / qblur=0.5 / ip_ratio=1.40 / aq=1:1.00

Audio
ID                               : 2
Format                           : AC-3
Format/Info                      : Audio Coding 3
Mode extension                   : CM (complete main)
Codec ID                         : A_AC3
Duration                         : 1h 53mn
Bit rate mode                    : Constant
Bit rate                         : 448 Kbps
Channel(s)                       : 6 channels
Channel positions                : Front: L C R, Side: L R, LFE
Sampling rate                    : 48.0 KHz
Bit depth                        : 16 bits
Stream size                      : 363 MiB (8%)
Language                         : English

Menu
00:00:00.000                     : :00:00:00.000
00:01:20.948                     : :00:01:20.948
00:05:26.426                     : :00:05:26.426
00:17:27.780                     : :00:17:27.780
00:19:21.527                     : :00:19:21.527
00:21:51.977                     : :00:21:51.977
00:37:13.998                     : :00:37:13.998
00:40:19.384                     : :00:40:19.384
00:52:58.842                     : :00:52:58.842
00:59:11.748                     : :00:59:11.748
01:01:55.345                     : :01:01:55.345
01:05:05.735                     : :01:05:05.735
01:16:18.574                     : :01:16:18.574
01:24:32.701                     : :01:24:32.701
01:34:52.487                     : :01:34:52.487
01:40:28.589                     : :01:40:28.589
01:42:20.935                     : :01:42:20.935
01:45:51.645                     : :01:45:51.645
01:52:24.705                     : :01:52:24.705

pb.wtf



pack Скачать Яна Кова : Непристойное Видео через торрент http://i28.fastpic.ru/big/2011/1231/3f/1e9a79247dc7554faec0bc6ea627133f.jpg Скачать фильм Яна Кова : Непристойное Видео через торрент бесплантно в хорошем качестве Описание: Jana Cova and Shay Jordan make crazy-sex together in Digital Playground's brand new Video Nasty Series. Jana is delicious in ... 9 10 1
Info! Золотая раздача, скачанное не засчитывается.
Торрент: Зарегистрирован [2012-01-09 22:41] · скачан: 195 раз
Статус: √ проверено
Размер: 4.37 GB
Как cкачать? Как скачать Яна Кова : Непристойное Видео через торрент | qTorrent

28-11-2019 20:33  

Отключить всю рекламу на сайте

    Дорогой пользователь! Огромная просьба, поблагодарите релизера, оцените раздачу и оставьте свои комментарий, если Вы скачали Яна Кова : Непристойное Видео через торрент бесплатно! Внесите свою лепту в развитие PiratBit!
    Комментировать посты могут только пользователи прошедшие не сложную регистрацию
    Показать сообщения:    

    Яна Кова : Непристойное Видео через торрент
    Скачать бесплатно Яна Кова : Непристойное Видео
    Яна Кова : Непристойное Видео скачать торрент
    Яна Кова : Непристойное Видео смотреть онлайн
    Cкачать фильм Яна Кова : Непристойное Видео бесплатно
    Яна Кова : Непристойное Видео скачать торрент в хорошем качестве
    Яна Кова : Непристойное Видео смотреть онлайн бесплатно в хорошем качестве


    Вы не можете начинать темы
    Вы не можете отвечать на сообщения
    Вы не можете редактировать свои сообщения
    Вы не можете удалять свои сообщения
    Вы не можете голосовать в опросах
    Вы не можете прикреплять файлы к сообщениям
    Вы можете скачивать файлы