Ссылка на приватное зеркало нашего сайта всего за 1$. Внимание количество ограничено!!!

2 сезон

iTunes

1 сезон

1

iTunes

iTunes

iTunes

1 сезон

RePack

30

ИГРА 18+

pack

ВАЖНО

!!Акция!!

Alien_RageХит недели

RePack

MK11
pack

Забери бонус

RePack

jed

!!Акция!!

Alien_Rage

RePack

fifa19

RePack

Assassins Creed: Odyssey

RePack

NEED FOR SPEED™ PAYBACK

4 сезон

9 сезон

Бесстыжие 9 сезон

Все сериалы

все сериалы на PB.wtf

RePack

FAR CRY 5
  

Кунг-фу Панда 2 / Kung Fu Panda 2 (Дженнифер Ю / Jennifer Yuh) [2011 г., мультфильм, боевик, комедия, приключения, семейный, BDRip-AVC] pb.wtf

Кунг-фу Панда 2 через торрент pb.wtf

Размер: 1.46 GB | Добавлен: 8 лет 9 мес. назад | Торрент скачан:749 раз
Скачать  

11-01-2012 01:21 Кунг-фу Панда 2 Скачать торрент  

Кунг-фу Панда 2 / Kung Fu Panda 2




Год выпуска: 2011
Страна: США / DreamWorks Animation
Жанр: мультфильм, боевик, комедия, приключения, семейный
Продолжительность: 01:30:24
Перевод: Дублированный [лицензия]


Режиссер: Дженнифер Ю / Jennifer Yuh
В ролях: Анджелина Джоли, Гари Олдман, Сет Роген, Жан-Клод Ван Дамм, Джек Блэк, Джеки Чан, Дастин Хоффман, Дэвид Кросс, Люси Лью, Мишель Йео

Описание: Панда По наконец-то исполнит свою мечту, станет Воином Дракона и со своими друзьями и мастерами кунг-фу - Неистовой Пятеркой - защитит Великую Долину от страшного злодея и его легиона...


Релиз группы:

Качество: BDRip [рип с BD-Remux]
Формат: MKV
Видео кодек: x264
Аудио кодек: AC3
Видео: 1024x432 (2.35:1), 23.976 fps, 1 930 Kbps (0.182 bit/pixel)
Аудио: 48.0 KHz, 6 ch, 384 Kbps, CBR



General
Unique ID : 195683225760076430214963989794527128147 (0x933737E9C12C6D129F9A1743003C2A53)
Complete name : D:\Video\Freedom\Кунг-фу Панда 2 (BDRip-AVC) by Freedom.mkv
Format : Matroska
Format version : Version 2
File size : 1.46 GiB
Duration : 1h 30mn
Overall bit rate : 2 315 Kbps
Encoded date : UTC 2012-01-10 16:47:30
Writing application : mkvmerge v5.0.1 ('Es ist Sommer') built on Nov 6 2011 16:23:40
Writing library : libebml v1.2.2 + libmatroska v1.3.0

Video
ID : 1
Format : AVC
Format/Info : Advanced Video Codec
Format profile : High@L3.1
Format settings, CABAC : Yes
Format settings, ReFrames : 9 frames
Codec ID : V_MPEG4/ISO/AVC
Duration : 1h 30mn
Bit rate : 1 930 Kbps
Width : 1 024 pixels
Height : 432 pixels
Display aspect ratio : 2.35:1
Frame rate : 23.976 fps
Color space : YUV
Chroma subsampling : 4:2:0
Bit depth : 8 bits
Scan type : Progressive
Bits/(Pixel*Frame) : 0.182
Stream size : 1.19 GiB (81%)
Writing library : x264 core 119 r2106 07efeb4
Encoding settings : cabac=1 / ref=9 / deblock=1:-1:-1 / analyse=0x3:0x133 / me=umh / subme=9 / psy=1 / psy_rd=1.00:0.10 / mixed_ref=1 / me_range=32 / chroma_me=1 / trellis=2 / 8x8dct=1 / cqm=0 / deadzone=21,11 / fast_pskip=0 / chroma_qp_offset=-3 / threads=6 / sliced_threads=0 / nr=0 / decimate=1 / interlaced=0 / bluray_compat=0 / constrained_intra=0 / bframes=6 / b_pyramid=2 / b_adapt=2 / b_bias=0 / direct=3 / weightb=1 / open_gop=0 / weightp=2 / keyint=250 / keyint_min=23 / scenecut=40 / intra_refresh=0 / rc_lookahead=50 / rc=2pass / mbtree=1 / bitrate=1930 / ratetol=1.0 / qcomp=0.60 / qpmin=0 / qpmax=69 / qpstep=4 / cplxblur=20.0 / qblur=0.5 / ip_ratio=1.40 / aq=1:1.00
Default : Yes
Forced : No

Audio
ID : 2
Format : AC-3
Format/Info : Audio Coding 3
Mode extension : CM (complete main)
Codec ID : A_AC3
Duration : 1h 30mn
Bit rate mode : Constant
Bit rate : 384 Kbps
Channel(s) : 6 channels
Channel positions : Front: L C R, Side: L R, LFE
Sampling rate : 48.0 KHz
Bit depth : 16 bits
Compression mode : Lossy
Stream size : 248 MiB (17%)
Default : Yes
Forced : No

pb.wtf



Скачать Кунг-фу Панда 2 через торрент http://i27.fastpic.ru/big/2011/1014/37/5e14dad1026ab4b380dc4f9320630537.png Скачать фильм Кунг-фу Панда 2 через торрент бесплантно в хорошем качестве Описание: Панда По наконец-то исполнит свою мечту, станет Воином Дракона и со своими друзьями и мастерами кунг-фу - Неистовой Пятеркой - ... 10 10 11
Info! Золотая раздача, скачанное не засчитывается.
Торрент: Зарегистрирован [2012-01-11 01:21] · скачан: 749 раз
Статус: √ проверено
Размер: 1.46 GB
Как cкачать? Как скачать Кунг-фу Панда 2 через торрент | qTorrent

% Раздел Тема Автор DL S | L
Иностранные мультфильмы [ 1.37 GB ] Кунг-фу Панда 2 / Kung Fu Panda 2 [2011 мультфильм HDRip лицензия] SD Скачать
3 | 0
Зарубежные Мультфильмы (BDRip 1080p, 720p, Blu-ray, BD-Remux) [ 17.14 GB ] Кунг-фу Панда 2 / Kung Fu Panda 2 [2011 мультфильм BD-Remux ] Seedtank Скачать
1 | 0
Зарубежные Мультфильмы (BDRip 1080p, 720p, Blu-ray, BD-Remux) [ 5.2 GB ] Кунг-фу Панда 2 / Kung Fu Panda 2 [2011 мультфильм BDRip 1080p] DUB ACFIORENTINA Скачать
2 | 0
3D Мультфильмы [ 5.64 GB ] Кунг-фу Панда 2 в 3Д / Kung Fu Panda 2 3D [2011 Мультфильм BDrip-AVC] Half OverUnder / Вертикальная анаморфная стереопара slaventi-69 Скачать
1 | 0
Зарубежные Мультфильмы (BDRip 1080p, 720p, Blu-ray, BD-Remux) [ 19.18 GB ] Кунг-фу Панда 2 / Kung Fu Panda 2 [2011 мультфильм BDRemux] dub ACFIORENTINA Скачать
1 | 0
Зарубежные Мультфильмы (DVD) [ 5.87 GB ] Кунг-фу Панда 2 / Kung Fu Panda 2 [2011 мультфильм DVD9] R5 voovaz Скачать
1 | 0
Иностранные мультфильмы [ 701 MB ] Кунг-фу Панда 2 / Kung Fu Panda 2 [2011 мультфильм HDRip лицензия] 700mb SD Скачать
1 | 0


Последний раз редактировалось: inktorrent (2012-01-12 16:15), всего редактировалось 3 раз(а)

28-11-2019 20:33  

Отключить всю рекламу на сайте

    Дорогой пользователь! Огромная просьба, поблагодарите релизера, оцените раздачу и оставьте свои комментарий, если Вы скачали Кунг-фу Панда 2 через торрент бесплатно! Внесите свою лепту в развитие PiratBit!
    Комментировать посты могут только пользователи прошедшие не сложную регистрацию
    Показать сообщения:    

    Кунг-фу Панда 2 через торрент
    Скачать бесплатно Кунг-фу Панда 2
    Кунг-фу Панда 2 скачать торрент
    Кунг-фу Панда 2 смотреть онлайн
    Cкачать фильм Кунг-фу Панда 2 бесплатно
    Кунг-фу Панда 2 скачать торрент в хорошем качестве
    Кунг-фу Панда 2 смотреть онлайн бесплатно в хорошем качестве


    Вы не можете начинать темы
    Вы не можете отвечать на сообщения
    Вы не можете редактировать свои сообщения
    Вы не можете удалять свои сообщения
    Вы не можете голосовать в опросах
    Вы не можете прикреплять файлы к сообщениям
    Вы можете скачивать файлы