Всегда рабочее зеркало без VPN и Proxy просто перед .vidak.icu напиши любое слово или цифру, Пример http://9syf.vidak.icu

MVO

MVO

1 сезон

1

1 сезон

iTunes

1 сезон

13

1 сезон

Deluxe

pack

Рекомендуем

Repack

30

ВАЖНО

RePack

MK11

RePack

jed

RePack

fifa19

RePack

RDR2

RePack

NEED FOR SPEED™ PAYBACK

Кинопоиск HD

6 сезон

 Острые козырьки 6 сезон

Все сериалы

все сериалы на PB.wtf

RePack

FAR CRY 5
  
Magnet ссылка

Хочу как ты / The Change-Up (Дэвид Добкин / David Dobkin) [2011 г., комедия, BDRip-AVC] pb.wtf

Хочу как ты через торрент pb.wtf

Размер: 1.46 GB | Добавлен: 10 лет назад | Торрент скачан:402 раза
Смотреть онлайн Хочу как ты | Скачать    Ребята, помогите собрать деньги на оплату серверов!!!

11-01-2012 11:33 Хочу как ты Скачать торрент  

Хочу как ты / The Change-Up




Год выпуска: 2011
Страна: США / Big Kid Pictures, Original Film, Relativity Media
Жанр: комедия
Продолжительность: 01:52:33
Перевод: Дублированный [лицензия]


Режиссер: Дэвид Добкин / David Dobkin
В ролях: Райан Рейнольдс, Джейсон Бейтмен, Лесли Манн, Оливия Уайлд, Алан Аркин, Мирчи Монро, Грегори Итцин, Нед Шмидтке, Ло Минг, Сидни Рувьер

Описание: В детстве Митч и Дейв были неразлучными друзьями. Но со временем их дороги разошлись. Дейв стал успешным юристом и примерным семьянином. Митч же остался холостяком и сердцеедом. Он считает, что у друга есть все, о чем только можно мечтать: прекрасная жена Джейми, любящие дети и крутая работа. Дейву же представляется сказочной беззаботная жизнь Митча, который днем курит травку, а ночи проводит в компании красивых женщин. Но однажды в жизни друзей все переворачивается вверх дном: Митч становится Дейвом, а Дейв — Митчем.


Релиз группы:

Качество: BDRip [рип с BD-Remux]
Формат: MKV
Видео кодек: x264
Аудио кодек: AC3
Видео: 1024x424 (2.40:1), 23.976 fps, 1 474 Kbps (0.142 bit/pixel)
Аудио: 48.0 KHz, 6 ch, 384 Kbps, CBR



General
Unique ID : 173121864458755328902569934907309210946 (0x823E0EEB5E2376C18E207D37399ABD42)
Complete name : D:\Video\Freedom\Хочу как ты (BDRip-AVC) by Freedom.mkv
Format : Matroska
Format version : Version 2
File size : 1.46 GiB
Duration : 1h 52mn
Overall bit rate : 1 860 Kbps
Encoded date : UTC 2012-01-11 09:35:13
Writing application : mkvmerge v5.0.1 ('Es ist Sommer') built on Nov 6 2011 16:23:40
Writing library : libebml v1.2.2 + libmatroska v1.3.0

Video
ID : 1
Format : AVC
Format/Info : Advanced Video Codec
Format profile : [email protected]
Format settings, CABAC : Yes
Format settings, ReFrames : 9 frames
Codec ID : V_MPEG4/ISO/AVC
Duration : 1h 52mn
Bit rate : 1 474 Kbps
Width : 1 024 pixels
Height : 424 pixels
Display aspect ratio : 2.40:1
Frame rate : 23.976 fps
Color space : YUV
Chroma subsampling : 4:2:0
Bit depth : 8 bits
Scan type : Progressive
Bits/(Pixel*Frame) : 0.142
Stream size : 1.13 GiB (77%)
Writing library : x264 core 119 r2106 07efeb4
Encoding settings : cabac=1 / ref=9 / deblock=1:-1:-1 / analyse=0x3:0x133 / me=umh / subme=9 / psy=1 / psy_rd=1.00:0.10 / mixed_ref=1 / me_range=32 / chroma_me=1 / trellis=2 / 8x8dct=1 / cqm=0 / deadzone=21,11 / fast_pskip=0 / chroma_qp_offset=-3 / threads=6 / sliced_threads=0 / nr=0 / decimate=1 / interlaced=0 / bluray_compat=0 / constrained_intra=0 / bframes=6 / b_pyramid=2 / b_adapt=2 / b_bias=0 / direct=3 / weightb=1 / open_gop=0 / weightp=2 / keyint=250 / keyint_min=23 / scenecut=40 / intra_refresh=0 / rc_lookahead=50 / rc=2pass / mbtree=1 / bitrate=1474 / ratetol=1.0 / qcomp=0.60 / qpmin=0 / qpmax=69 / qpstep=4 / cplxblur=20.0 / qblur=0.5 / ip_ratio=1.40 / aq=1:1.00
Default : Yes
Forced : No

Audio
ID : 2
Format : AC-3
Format/Info : Audio Coding 3
Mode extension : CM (complete main)
Codec ID : A_AC3
Duration : 1h 52mn
Bit rate mode : Constant
Bit rate : 384 Kbps
Channel(s) : 6 channels
Channel positions : Front: L C R, Side: L R, LFE
Sampling rate : 48.0 KHz
Bit depth : 16 bits
Compression mode : Lossy
Stream size : 309 MiB (21%)
Default : Yes
Forced : No

pb.wtf



Скачать Хочу как ты через торрент http://i30.fastpic.ru/big/2012/0111/1d/8e9ecf06f2104abbb09960afefcc221d.png Скачать, смотреть онлайн Хочу как ты бесплантно в хорошем качестве Описание: В детстве Митч и Дейв были неразлучными друзьями. Но со временем их дороги разошлись. Дейв стал успешным юристом и примерным ... 9.9 10 9
Info! Золотая раздача, скачанное не засчитывается.
Торрент: Зарегистрирован [2012-01-11 11:33] · скачан: 402 раз
Статус: √ проверено
Размер: 1.46 GB
Как cкачать? Как скачать Хочу как ты через торрент | UTorrent

% Раздел Тема Автор DL S | L
Фильмы 2011 [ 1.37 GB ] Хочу как ты / The Change-Up [2011 HDRip лицензия] SD Скачать
1 | 0
Фильмы (Blu-ray, BD-Remux, HDDVD) [ 19.19 GB ] Хочу как ты / The Change-Up [2011 BD-Remux 1080p] [Расширенная версия / Еxtended edition] NarutoSasuke Скачать
1 | 0
Фильмы 2011 [ 2.1 GB ] Хочу как ты / The Change-Up [2011 HDRip-AVC]DUB stalonе Скачать
1 | 0
Фильмы 2011 [ 2.05 GB ] Хочу как ты / The Change-Up [2011 HDRip] shuller Скачать
1 | 0
Фильмы [HD 720p, 1080p] (Хороший звук DUB, MVO) [ 5.51 GB ] Хочу как ты / The Change-Up [2011 BDRip 720p] pakalodnik0 Скачать
1 | 0
Фильмы (DVD фильмы) [ 6.02 GB ] Хочу как ты / The Change-Up [2011 DVD9] R5 «Двадцатый Век Фокс СНГ» voovaz Скачать
1 | 0
Трейлеры и дополнительные материалы к фильмам [ 90 MB ] Хочу как ты / The Change-Up [2011 HDTV] jora poker Скачать
1 | 0


Последний раз редактировалось: inktorrent (2012-01-12 16:25), всего редактировалось 5 раз(а)

28-11-2019 20:33  

Отключить вcю реклaмy на сайте

    Дорогой пользователь! Огромная просьба, поблагодарите релизера, оцените раздачу и оставьте свои комментарий, если Вы скачали Хочу как ты через торрент бесплатно!
    Комментировать посты могут только пользователи прошедшие не сложную регистрацию
    Показать сообщения:    

    Хочу как ты через торрент
    Скачать бесплатно Хочу как ты
    Хочу как ты скачать торрент
    Хочу как ты смотреть онлайн
    Cкачать фильм Хочу как ты бесплатно
    Хочу как ты скачать торрент в хорошем качестве
    Хочу как ты смотреть онлайн бесплатно в хорошем качестве


    Вы не можете начинать темы
    Вы не можете отвечать на сообщения
    Вы не можете редактировать свои сообщения
    Вы не можете удалять свои сообщения
    Вы не можете голосовать в опросах
    Вы не можете прикреплять файлы к сообщениям
    Вы можете скачивать файлы