2 сезон

iTunes

MVO

1

2 сезон

iTunes

1 сезон

1 сезон

RePack

30

Новинка

ВАЖНО

ИГРА 18+

pack

RePack

MK11
pack

Легкие деньги

RePack

jed

RePack

fifa19

RePack

RDR2

RePack

NEED FOR SPEED™ PAYBACK

4 сезон

9 сезон

Бесстыжие 9 сезон

Все сериалы

все сериалы на PB.wtf

RePack

FAR CRY 5

Anonymous, добрый вечер, мы не успеваем собрать деньги на оплату серверов за декабрь и январь, помогите нам пожалуйста в это трудное время. В качестве благодарности мы отключим Вам всю рекламу на сайте (укажите свой ник в строку Ваше имя)!

×
  
Magnet ссылка

Блудливая Калифорния / Californicat​ion / Сезон: 5 / Серии: 1-8 (12)(Том Капинос) [2012 г., комедия, драма, HDTV 1080i](NovaFilm) pb.wtf

Блудливая Калифорния через торрент pb.wtf

Размер: 19.13 GB | Добавлен: 8 лет 9 мес. назад | Торрент скачан:7 раз

Как вам возвращение Хэнка Муди?

 It's ROCK!!!! (21)

 Средненько (1)

 Совсем не понравилось (4)

Всего проголосовало : 26

Скачать  

12-01-2012 23:44 Блудливая Калифорния Скачать торрент  

Блудливая Калифорния / Калифорникейшн / Californication
Год выпуска: 2012
Страна: США
Жанр: комедия, драма
Продолжительность: ~00:29:00
Перевод: Профессиональный (многоголосый закадровый) (NovaFilm)
Субтитры: Отсутствуют
Режиссер: Том Капинос
В ролях: Дэвид Духовны, Наташа МакЭлхоун, Памела Адлон, Эван Хандлер и другие
Премьера в мире: 08.01.2012
Описание: Похождения блудливого писателя Хэнка Муди продолжаются. На этот раз, спустя два года, он возвращается на солнечное побережье, чтобы сработаться вместе с экс рэпером RZA. И пусть за эти годы многое изменилось, но только не старина Хэнк...
Похожие раздачи: Californication
Качество: HDTV 1080i
Формат: ts
Видео кодек: MPEG2
Аудио кодек: AC3
Видео: MPEG2, 1920x1080, 29.970 fps, 10.6 mbps, 0.171 bit/pix
Аудио Rus: 48 kHz, Audio Coding 3, 5.1 @ 384 kbps
Аудио Eng: 48 kHz, Audio Coding 3, 5.1 @ 384 kbps
720p версия | 400p версия

Озвучка: NovaFilm
Перевод: Dara

В сериале присутствует ненормативная лексика и сцены с обнаженной натурой!!
Общее
Идентификатор : 1 (0x1)
Полное имя : I:\Раздачи\Раздачи\1080\Блудливая Калифорния 1080i Nova\Californication.S05E01.1080i.HDTV.DD5.1.ts
Формат : MPEG-TS
Размер файла : 2,46 Гбайт
Продолжительность : 29 м.
Режим общего битрейта : Переменный
Общий поток : 12,0 Мбит/сек
Максимальный общий битрейт : 35,5 Мбит/сек

Видео
Идентификатор : 4113 (0x1011)
Идентификатор меню : 1 (0x1)
Формат : MPEG Video
Версия формата : Version 2
Профиль формата : Main@High
Параметр BVOP формата : Да
Параметр матрицы формата : Выборочная
Идентификатор кодека : 2
Продолжительность : 29 м.
Вид битрейта : Переменный
Битрейт : 10,6 Мбит/сек
Максимальный битрейт : 14,7 Мбит/сек
Ширина : 1920 пикселей
Высота : 1080 пикселей
Соотношение сторон : 16:9
Частота кадров : 29,970 кадров/сек
Цветовое пространство : YUV
Субдискретизация насыщенности : 4:2:0
Битовая глубина : 8 бит
Метод сжатия : С потерями
Бит/(Пиксели*Кадры) : 0.171
Размер потока : 2,18 Гбайт (89%)

Аудио #1
Идентификатор : 4352 (0x1100)
Идентификатор меню : 1 (0x1)
Формат : AC-3
Формат/Информация : Audio Coding 3
Расширение режима : CM (complete main)
Идентификатор кодека : 129
Продолжительность : 29 м.
Вид битрейта : Постоянный
Битрейт : 384 Кбит/сек
Каналы : 6 каналов
Расположение каналов : Front: L C R, Side: L R, LFE
Частота : 48,0 КГц
Битовая глубина : 16 бит
Метод сжатия : С потерями
Задержка видео : -67 мс.
Размер потока : 80,9 Мбайт (3%)

Аудио #2
Идентификатор : 4353 (0x1101)
Идентификатор меню : 1 (0x1)
Формат : AC-3
Формат/Информация : Audio Coding 3
Расширение режима : CM (complete main)
Идентификатор кодека : 129
Продолжительность : 29 м.
Вид битрейта : Постоянный
Битрейт : 384 Кбит/сек
Каналы : 6 каналов
Расположение каналов : Front: L C R, Side: L R, LFE
Частота : 48,0 КГц
Битовая глубина : 16 бит
Метод сжатия : С потерями
Задержка видео : -38 мс.
Размер потока : 80,9 Мбайт (3%)
Язык : English

Текст #1
Идентификатор : 4113 (0x1011)-608-1
Идентификатор меню : 1 (0x1)
Формат : EIA-608
Режим смешивания : A/53 / DTVCC Transport
Режим смешивания, доп. информаци : Muxed in Video #1
Продолжительность : 29 м.
Вид битрейта : Постоянный
Размер потока : 0,00 байт (0%)

Текст #2
Идентификатор : 4113 (0x1011)-608-2
Идентификатор меню : 1 (0x1)
Формат : EIA-608
Режим смешивания : A/53 / DTVCC Transport
Режим смешивания, доп. информаци : Muxed in Video #1
Продолжительность : 29 м.
Вид битрейта : Постоянный
Размер потока : 0,00 байт (0%)

Текст #3
Идентификатор : 4113 (0x1011)-1
Идентификатор меню : 1 (0x1)
Формат : EIA-708
Режим смешивания : A/53 / DTVCC Transport
Режим смешивания, доп. информаци : Muxed in Video #1
Продолжительность : 29 м.
Вид битрейта : Постоянный
Размер потока : 0,00 байт (0%)
Episode 1: JFK to LAX (Из Нью-Йорка в Лос-Анджелес) - 8 January 2012
Episode 2: The Way of the Fist - 15 January 2012
Episode 3: Boys & Girls - 22 January 2012
Episode 4: Waiting for the Miracle - 29 January 2012
Episode 5: Episode #5.5 - 5 February 2012
Episode 6: Episode #5.6 - 12 February 2012
Episode 7: Episode #5.7 - 19 February 2012
Episode 8: Episode #5.8 - 26 February 2012
Episode 9: Episode #5.9 - 4 March 2012
Episode 10: Episode #5.10 - 11 March 2012
Episode 11: Episode #5.11 - 18 March 2012
Episode 12: Episode #5.12 - 25 March 2012

Внимание! Раздача ведётся путём добавления новых серий; при каждом добавлении создётся новый торрент. Чтобы начать докачку новой серии, пользователям необходимо сделать следующее:
(1) остановить скачивание,
(2) удалить старый торрент у себя из клиента (старые серии удалять не надо),
(3) скачать новый торрент и запустить его у себя в клиенте вместо старого, при этом указать клиенту путь в старую папку куда и должно происходить скачивание новых серий.

Ваш клиент при этом должен произвести хеширование (проверку) старой папки (если не производит сам - помогите ему сделать это), и будет докачивать только те серии которых у вас ещё нет. Старые серии при этом не удаляются, а продолжают раздаваться!

Eсли вы уже удалили старые серии, то предотвратить повторную закачку старых серий можно, отжав галочку в соответсвующих местах при запуске нового торрента. По возможности, желательно не удалять старые серии как можно дольше чтобы релизёр не столько продолжал раздавать старые серии, а смог сконцентрироваться на новых.
Добавлены 7 и 8 серии!pb.wtf



Скачать Блудливая Калифорния через торрент https://pic.kartinco.top/images/2011/olfu4c4572.jpg Скачать фильм Блудливая Калифорния через торрент бесплантно в хорошем качестве Описание: Похождения блудливого писателя Хэнка Муди продолжаются. На этот раз, спустя два года, он возвращается на солнечное побережье, ... 5 10 5
Info! Золотая раздача, скачанное не засчитывается.
Торрент: Зарегистрирован [2012-04-17 20:32] · скачан: 7 раз
Статус: √ проверено
Размер: 19.13 GB
Как cкачать? Как скачать Блудливая Калифорния через торрент | UTorrent



Последний раз редактировалось: Messa-fan (2012-04-17 20:31), всего редактировалось 7 раз(а)

28-11-2019 20:33  

Отключить всю рекламу на сайте


13-01-2012 00:10 Блудливая Калифорния Скачать торрент  

Приятного просмотра!pb.wtf



13-01-2012 04:55 Блудливая Калифорния Скачать торрент  

спасибо, дождалсяpb.wtf



13-01-2012 09:16 Блудливая Калифорния Скачать торрент  

pb.wtf



25-01-2012 13:42 Блудливая Калифорния Скачать торрент  

Добавлена 2 серия!!!pb.wtf



29-01-2012 16:38 Блудливая Калифорния Скачать торрент  

Добавлена 3 серия!pb.wtf



12-02-2012 10:46 Блудливая Калифорния Скачать торрент  

Добавлена 4 серия!
Из состава раздачи убраны субтитры.
pb.wtf



28-02-2012 19:42 Блудливая Калифорния Скачать торрент  

Добавлены 5 и 6 серии!pb.wtf



17-04-2012 20:33 Блудливая Калифорния Скачать торрент  

Добавлены 7 и 8 серии!pb.wtf



17-04-2017 15:46 Блудливая Калифорния Скачать торрент  

Дайте скорости!pb.wtf



    Дорогой пользователь! Огромная просьба, поблагодарите релизера, оцените раздачу и оставьте свои комментарий, если Вы скачали Блудливая Калифорния через торрент бесплатно! Внесите свою лепту в развитие PiratBit!
    Комментировать посты могут только пользователи прошедшие не сложную регистрацию
    Показать сообщения:    

    Блудливая Калифорния через торрент
    Скачать бесплатно Блудливая Калифорния
    Блудливая Калифорния скачать торрент
    Блудливая Калифорния смотреть онлайн
    Cкачать фильм Блудливая Калифорния бесплатно
    Блудливая Калифорния скачать торрент в хорошем качестве
    Блудливая Калифорния смотреть онлайн бесплатно в хорошем качестве


    Вы не можете начинать темы
    Вы не можете отвечать на сообщения
    Вы не можете редактировать свои сообщения
    Вы не можете удалять свои сообщения
    Вы не можете голосовать в опросах
    Вы не можете прикреплять файлы к сообщениям
    Вы можете скачивать файлы