Ссылка на приватное зеркало нашего сайта всего за 1$. Внимание количество ограничено!!!

2 сезон

iTunes

1 сезон

1

iTunes

iTunes

iTunes

1 сезон

RePack

30

ИГРА 18+

pack

ВАЖНО

!!Акция!!

Alien_RageХит недели

RePack

MK11
pack

Забери бонус

RePack

jed

!!Акция!!

Alien_Rage

RePack

fifa19

RePack

Assassins Creed: Odyssey

RePack

NEED FOR SPEED™ PAYBACK

4 сезон

9 сезон

Бесстыжие 9 сезон

Все сериалы

все сериалы на PB.wtf

RePack

FAR CRY 5
  

Жены С Веб-Сайта / Website Wives (James Avalon, Penthouse) [2011, Feature, HDTV, 720p] pb.wtf

Жены С Веб-Сайта через торрент pb.wtf

Размер: 3.28 GB | Добавлен: 8 лет 9 мес. назад | Торрент скачан:165 раз
Скачать  

13-01-2012 14:43 Жены С Веб-Сайта Скачать торрент  

Website Wives / Жены С Веб-Сайта

Год производства: 2011 г.
Страна: USA
Жанр: Feature
Продолжительность: 01:54:26
Язык: Английский
Режиссер: James Avalon
Студия: Penthouse
В ролях:
April O'Neil, Brian Street Team, Daisy Marie, Jazy Berlin, Jenna Rose, Misti Dawn, Richie, Sasha Hart
Описание:
Penthouse's hardest XXX hardcore ever!
Sexy porn stars like Jazy Berlin, Jenna Rose, April O'Neil, and more love when you watch them suck, fuck and play on camera!
Доп. информация: http://www.adultdvdempire.com/1578922/website-wives-porn-movies.html

Общее
Уникальный идентификатор : 182450797613220514820478413024322851486 (0x8942BED5D0BC39A1A304C624B03F129E)
Полное имя : D:\torrent\shdxxx-websitewives.720p.mkv
Формат : Matroska
Версия формата : Version 2
Размер файла : 3,28 Гбайт
Продолжительность : 1 ч. 54 м.
Общий поток : 4103 Кбит/сек
Дата кодирования : UTC 2012-01-05 06:11:23
Программа кодирования : mkvmerge v5.2.0 ('I can't explain') built on Dec 18 2011 18:12:03
Библиотека кодирования : libebml v1.2.3 + libmatroska v1.3.0
Видео
Идентификатор : 1
Формат : AVC
Формат/Информация : Advanced Video Codec
Профиль формата : High@L4.1
Параметр CABAC формата : Да
Параметр ReFrames формата : 5 кадров
Идентификатор кодека : V_MPEG4/ISO/AVC
Продолжительность : 1 ч. 54 м.
Битрейт : 3909 Кбит/сек
Ширина : 1280 пикселей
Высота : 720 пикселей
Соотношение сторон : 16:9
Частота кадров : 25,000 кадров/сек
Цветовое пространство : YUV
Субдискретизация насыщенности : 4:2:0
Битовая глубина : 8 бит
Тип развёртки : Прогрессивная
Бит/(Пиксели*Кадры) : 0.170
Размер потока : 3,06 Гбайт (93%)
Библиотека кодирования : x264 core 120 r2120 0c7dab9
Настройки программы : cabac=1 / ref=5 / deblock=1:0:0 / analyse=0x3:0x133 / me=umh / subme=7 / psy=1 / psy_rd=1.00:0.00 / mixed_ref=1 / me_range=16 / chroma_me=1 / trellis=1 / 8x8dct=1 / cqm=0 / deadzone=21,11 / fast_pskip=0 / chroma_qp_offset=-2 / threads=12 / sliced_threads=0 / nr=0 / decimate=1 / interlaced=0 / bluray_compat=0 / constrained_intra=0 / bframes=3 / b_pyramid=2 / b_adapt=1 / b_bias=0 / direct=1 / weightb=1 / open_gop=0 / weightp=2 / keyint=250 / keyint_min=25 / scenecut=40 / intra_refresh=0 / rc_lookahead=40 / rc=2pass / mbtree=1 / bitrate=3909 / ratetol=1.0 / qcomp=0.60 / qpmin=0 / qpmax=51 / qpstep=4 / cplxblur=20.0 / qblur=0.5 / ip_ratio=1.40 / aq=1:1.00
Default : Да
Forced : Нет
Аудио
Идентификатор : 2
Формат : AC-3
Формат/Информация : Audio Coding 3
Расширение режима : CM (complete main)
Идентификатор кодека : A_AC3
Продолжительность : 1 ч. 54 м.
Вид битрейта : Постоянный
Битрейт : 192 Кбит/сек
Каналы : 2 канала
Расположение каналов : Front: L R
Частота : 48,0 КГц
Битовая глубина : 16 бит
Метод сжатия : С потерями
Размер потока : 157 Мбайт (5%)
Язык : English
Default : Да
Forced : Нет


Качество: 720p | Формат видео: mkv
Video: MPEG4 Video (H264) 1280x720 25.00fps 4692Kbps[Video]
Audio: Dolby AC3 48000Hz stereo [Audio]
pb.wtf



pack Скачать Жены С Веб-Сайта через торрент http://i18.fastpic.ru/big/2011/0810/59/24778fa0175823e59cd5cd48b4fa1359.jpg Скачать фильм Жены С Веб-Сайта через торрент бесплантно в хорошем качестве Описание: Penthouse's hardest XXX hardcore ever!Sexy porn stars like Jazy Berlin, Jenna Rose, April O'Neil, and more love when you watch ... 4.8 10 4
Info! Золотая раздача, скачанное не засчитывается.
Торрент: Зарегистрирован [2012-01-13 14:43] · скачан: 165 раз
Статус: √ проверено
Размер: 3.28 GB
Как cкачать? Как скачать Жены С Веб-Сайта через торрент | qTorrent

28-11-2019 20:33  

Отключить всю рекламу на сайте

    Дорогой пользователь! Огромная просьба, поблагодарите релизера, оцените раздачу и оставьте свои комментарий, если Вы скачали Жены С Веб-Сайта через торрент бесплатно! Внесите свою лепту в развитие PiratBit!
    Комментировать посты могут только пользователи прошедшие не сложную регистрацию
    Показать сообщения:    

    Жены С Веб-Сайта через торрент
    Скачать бесплатно Жены С Веб-Сайта
    Жены С Веб-Сайта скачать торрент
    Жены С Веб-Сайта смотреть онлайн
    Cкачать фильм Жены С Веб-Сайта бесплатно
    Жены С Веб-Сайта скачать торрент в хорошем качестве
    Жены С Веб-Сайта смотреть онлайн бесплатно в хорошем качестве


    Вы не можете начинать темы
    Вы не можете отвечать на сообщения
    Вы не можете редактировать свои сообщения
    Вы не можете удалять свои сообщения
    Вы не можете голосовать в опросах
    Вы не можете прикреплять файлы к сообщениям
    Вы можете скачивать файлы