Ссылка на приватное зеркало нашего сайта всего за 1$. Внимание количество ограничено!!!

2 сезон

iTunes

1 сезон

1

iTunes

iTunes

iTunes

1 сезон

RePack

30

ИГРА 18+

pack

ВАЖНО

!!Акция!!

Alien_RageХит недели

RePack

MK11
pack

Забери бонус

RePack

jed

!!Акция!!

Alien_Rage

RePack

fifa19

RePack

Assassins Creed: Odyssey

RePack

NEED FOR SPEED™ PAYBACK

4 сезон

9 сезон

Бесстыжие 9 сезон

Все сериалы

все сериалы на PB.wtf

RePack

FAR CRY 5
  

Барселонская Шик / Barcelona Chic (Toni Ribas, Penthouse) [2010 г., Vignettes, Anal, HDTV, 1080p] pb.wtf

Барселонская Шик через торрент pb.wtf

Размер: 6.56 GB | Добавлен: 8 лет 9 мес. назад | Торрент скачан:253 раза
Скачать  

13-01-2012 15:02 Барселонская Шик Скачать торрент  

Barcelona Chic / Барселонская Шик

Год производства: 2010 г.
Страна: USA
Жанр: Vignettes, Anal
Продолжительность: 136 min
Режиссер: Toni Ribas
Студия: Penthouse
В ролях:
Cindy Hope, Etienne Pauliac, George Uhl, Keana Moire, Lena Cova, Nessa Devil, Sandra Sanchez, Tarra White, Toni Ribas, Toni Ribas
Описание:
Penthouse brings you the most stunning XXX hardcore European women, all shot on location in beautiful Barcelona!
Доп. информация: http://www.adultdvdempire.com/1548636/barcelona-chic-porn-movies.html

Общее
Уникальный идентификатор : 247695162504798322186044023973634288559 (0xBA585A61CC64CF12B7902C72DFFAABAF)
Полное имя : D:\torrent\shdxxx-barcelonachic.1080p.mkv
Формат : Matroska
Версия формата : Version 2
Размер файла : 6,56 Гбайт
Продолжительность : 1 ч. 53 м.
Общий поток : 8249 Кбит/сек
Дата кодирования : UTC 2012-01-10 16:47:31
Программа кодирования : mkvmerge v5.2.1 ('A Far Off Place') built on Jan 2 2012 23:21:10
Библиотека кодирования : libebml v1.2.3 + libmatroska v1.3.0
Видео
Идентификатор : 1
Формат : AVC
Формат/Информация : Advanced Video Codec
Профиль формата : High@L4.1
Параметр CABAC формата : Да
Параметр ReFrames формата : 4 кадра
Идентификатор кодека : V_MPEG4/ISO/AVC
Продолжительность : 1 ч. 53 м.
Битрейт : 8056 Кбит/сек
Ширина : 1920 пикселей
Высота : 1080 пикселей
Соотношение сторон : 16:9
Частота кадров : 25,000 кадров/сек
Цветовое пространство : YUV
Субдискретизация насыщенности : 4:2:0
Битовая глубина : 8 бит
Тип развёртки : Прогрессивная
Бит/(Пиксели*Кадры) : 0.155
Размер потока : 6,28 Гбайт (96%)
Библиотека кодирования : x264 core 120 r2120 0c7dab9
Настройки программы : cabac=1 / ref=4 / deblock=1:0:0 / analyse=0x3:0x133 / me=umh / subme=7 / psy=1 / psy_rd=1.00:0.00 / mixed_ref=1 / me_range=16 / chroma_me=1 / trellis=1 / 8x8dct=1 / cqm=0 / deadzone=21,11 / fast_pskip=0 / chroma_qp_offset=-2 / threads=12 / sliced_threads=0 / nr=0 / decimate=1 / interlaced=0 / bluray_compat=0 / constrained_intra=0 / bframes=3 / b_pyramid=2 / b_adapt=1 / b_bias=0 / direct=1 / weightb=1 / open_gop=0 / weightp=2 / keyint=250 / keyint_min=25 / scenecut=40 / intra_refresh=0 / rc_lookahead=40 / rc=2pass / mbtree=1 / bitrate=8056 / ratetol=1.0 / qcomp=0.60 / qpmin=0 / qpmax=51 / qpstep=4 / cplxblur=20.0 / qblur=0.5 / ip_ratio=1.40 / aq=1:1.00
Default : Да
Forced : Нет
Аудио
Идентификатор : 2
Формат : AC-3
Формат/Информация : Audio Coding 3
Расширение режима : CM (complete main)
Идентификатор кодека : A_AC3
Продолжительность : 1 ч. 53 м.
Вид битрейта : Постоянный
Битрейт : 192 Кбит/сек
Каналы : 2 канала
Расположение каналов : Front: L R
Частота : 48,0 КГц
Битовая глубина : 16 бит
Метод сжатия : С потерями
Размер потока : 156 Мбайт (2%)
Default : Да
Forced : Нет


Качество: 1080p | Формат видео: mkv
Видео кодек: H.264/AVC | Аудио кодек: AC3
Video: MPEG4 Video (H264) 1920x1080 25.00fps 8166Kbps[Video]
Audio: Dolby AC3 48000Hz stereo [Audio]
pb.wtf



pack Скачать Барселонская Шик через торрент http://pic.kartinco.top/images/2011/wzv3zmyc86.jpg Скачать фильм Барселонская Шик через торрент бесплантно в хорошем качестве Описание: Penthouse brings you the most stunning XXX hardcore European women, all shot on location in beautiful Barcelona!Доп. информация: ... 10 10 4
Info! Золотая раздача, скачанное не засчитывается.
Торрент: Зарегистрирован [2012-01-13 15:02] · скачан: 253 раз
Статус: √ проверено
Размер: 6.56 GB
Как cкачать? Как скачать Барселонская Шик через торрент | qTorrent

% Раздел Тема Автор DL S | L
Порно фильмы с сюжетом [ 1.37 GB ] Barcelona Chic / Барселонский Шик [2010 Vignettes Anal DVDRip] Shmel Скачать
1 | 0

28-11-2019 20:33  

Отключить всю рекламу на сайте

    Дорогой пользователь! Огромная просьба, поблагодарите релизера, оцените раздачу и оставьте свои комментарий, если Вы скачали Барселонская Шик через торрент бесплатно! Внесите свою лепту в развитие PiratBit!
    Комментировать посты могут только пользователи прошедшие не сложную регистрацию
    Показать сообщения:    

    Барселонская Шик через торрент
    Скачать бесплатно Барселонская Шик
    Барселонская Шик скачать торрент
    Барселонская Шик смотреть онлайн
    Cкачать фильм Барселонская Шик бесплатно
    Барселонская Шик скачать торрент в хорошем качестве
    Барселонская Шик смотреть онлайн бесплатно в хорошем качестве


    Вы не можете начинать темы
    Вы не можете отвечать на сообщения
    Вы не можете редактировать свои сообщения
    Вы не можете удалять свои сообщения
    Вы не можете голосовать в опросах
    Вы не можете прикреплять файлы к сообщениям
    Вы можете скачивать файлы