Ссылка на приватное зеркало нашего сайта всего за 1$. Внимание количество ограничено!!!

2 сезон

iTunes

1 сезон

1

iTunes

iTunes

iTunes

1 сезон

RePack

30

ИГРА 18+

pack

ВАЖНО

!!Акция!!

Alien_RageХит недели

RePack

MK11
pack

Забери бонус

RePack

jed

!!Акция!!

Alien_Rage

RePack

fifa19

RePack

Assassins Creed: Odyssey

RePack

NEED FOR SPEED™ PAYBACK

4 сезон

9 сезон

Бесстыжие 9 сезон

Все сериалы

все сериалы на PB.wtf

RePack

FAR CRY 5
  

Близняшки / 2 of a Kind (Robby D, Digital Playground) [2010 г., Feature, 1080p, BDRip] pb.wtf

Близняшки через торрент pb.wtf

Размер: 7.94 GB | Добавлен: 8 лет 9 мес. назад | Торрент скачан:532 раза
Скачать  

13-01-2012 15:30 Близняшки Скачать торрент  

2 of a Kind / Близняшки

Год производства: 2010 г.
Страна: USA
Жанр: Feature
Продолжительность: 02:07:42
Режиссер: Robby D
Студия: Digital Playground
Язык: Английский
В ролях: Alexis Texas, Charles Dera, Manuel Ferrara, Mick Blue, Monique Alexander, Raven Alexis, Sara Stone, Scott Nails, Tommy Gunn
Описание: Double your pleasure.
Sizzling Raven Alexis and her naughty 'twin sister' get into words of horny trouble with the hard studs they toy with and handle, like Manuel Ferrara and Mick Blue. Big Booty hottie, Alexis Texas, gets down and dirty with long rod member, Scott Nails. The luscious tits of sexy Sara Stone are sucked, licked and plunged into by hungry Charles Dera. Wild and deep pumper, Tommy Gunn drilles Monique Alexander's tight wet hole. Bad girl Raven reveals her lusty game of cock tease to her hung lovers, before treating them to many explosive, happy endings.
Доп. информация: http://www.adultdvdempire.com/1594085/2-of-a-kind-d...porn-movies.html
Релиз группы: Jiggly
Тип HD видео: 1080p
Качество видео: BDRip
Формат видео: MKV
Видео кодек: H.264/AVC
Аудио кодек: AC3
Видео: 1920x1080, 23,976 fps, ~8267 kbps
Аудио: 48 kHz, 6 ch, 640 kbps
Код: Общее
Уникальный идентификатор : 197002606125102934261302420039330694928 (0x943552632E117CA7B8D040D33BF80710)
Полное имя : F:\...2.Of.A.Kind.XXX.1080p.Bluray.x264-Jiggly.mkv
Формат : Matroska
Версия формата : Version 2
Размер файла : 7,94 Гбайт
Продолжительность : 2 ч. 7 м.
Общий поток : 8907 Кбит/сек
Дата кодирования : UTC 2012-01-02 12:49:20
Программа кодирования : mkvmerge v5.2.0 ('I can't explain') built on Dec 18 2011 18:12:03
Библиотека кодирования : libebml v1.2.3 + libmatroska v1.3.0
Видео
Идентификатор : 1
Формат : AVC
Формат/Информация : Advanced Video Codec
Профиль формата : High@L4.1
Параметр CABAC формата : Да
Параметр ReFrames формата : 4 кадра
Идентификатор кодека : V_MPEG4/ISO/AVC
Продолжительность : 2 ч. 7 м.
Битрейт : 8267 Кбит/сек
Ширина : 1920 пикселей
Высота : 1080 пикселей
Соотношение сторон : 16:9
Частота кадров : 23,976 кадра/сек
Цветовое пространство : YUV
Субдискретизация насыщенности : 4:2:0
Битовая глубина : 8 бит
Тип развёртки : Прогрессивная
Бит/(Пиксели*Кадры) : 0.166
Размер потока : 7,22 Гбайт (91%)
Библиотека кодирования : x264 core 120 r2120 0c7dab9
Настройки программы : cabac=1 / ref=4 / deblock=1:0:0 / analyse=0x3:0x133 / me=umh / subme=7 / psy=1 / psy_rd=1.00:0.00 / mixed_ref=1 / me_range=16 / chroma_me=1 / trellis=1 / 8x8dct=1 / cqm=0 / deadzone=21,11 / fast_pskip=0 / chroma_qp_offset=-2 / threads=12 / sliced_threads=0 / nr=0 / decimate=1 / interlaced=0 / bluray_compat=0 / constrained_intra=0 / bframes=3 / b_pyramid=2 / b_adapt=1 / b_bias=0 / direct=1 / weightb=1 / open_gop=0 / weightp=2 / keyint=250 / keyint_min=23 / scenecut=40 / intra_refresh=0 / rc_lookahead=40 / rc=2pass / mbtree=1 / bitrate=8267 / ratetol=1.0 / qcomp=0.60 / qpmin=10 / qpmax=51 / qpstep=4 / cplxblur=20.0 / qblur=0.5 / ip_ratio=1.40 / aq=1:1.00
Язык : English
Default : Да
Forced : Нет
Аудио
Идентификатор : 2
Формат : AC-3
Формат/Информация : Audio Coding 3
Расширение режима : CM (complete main)
Идентификатор кодека : A_AC3
Продолжительность : 2 ч. 7 м.
Вид битрейта : Постоянный
Битрейт : 640 Кбит/сек
Каналы : 6 каналов
Расположение каналов : Front: L C R, Side: L R, LFE
Частота : 48,0 КГц
Битовая глубина : 16 бит
Метод сжатия : С потерями
Размер потока : 585 Мбайт (7%)
Язык : English
Default : Да
Forced : Нет
pb.wtf



pack Скачать Близняшки через торрент http://pic.kartinco.top/images/2011/dgbs7i8fdq.png Скачать фильм Близняшки через торрент бесплантно в хорошем качестве Описание: Double your pleasure.Sizzling Raven Alexis and her naughty 'twin sister' get into words of horny trouble with the hard studs they ... 10 10 1
Info! Золотая раздача, скачанное не засчитывается.
Торрент: Зарегистрирован [2012-01-13 15:30] · скачан: 532 раз
Статус: √ проверено
Размер: 7.94 GB
Как cкачать? Как скачать Близняшки через торрент | qTorrent

% Раздел Тема Автор DL S | L
Порно фильмы HD [ 4.37 GB ] Близняшки / 2 Of A Kind [2011 All Sex. BDRip] Pir@tya2010 Скачать
1 | 0

28-11-2019 20:33  

Отключить всю рекламу на сайте

    Дорогой пользователь! Огромная просьба, поблагодарите релизера, оцените раздачу и оставьте свои комментарий, если Вы скачали Близняшки через торрент бесплатно! Внесите свою лепту в развитие PiratBit!
    Комментировать посты могут только пользователи прошедшие не сложную регистрацию
    Показать сообщения:    

    Близняшки через торрент
    Скачать бесплатно Близняшки
    Близняшки скачать торрент
    Близняшки смотреть онлайн
    Cкачать фильм Близняшки бесплатно
    Близняшки скачать торрент в хорошем качестве
    Близняшки смотреть онлайн бесплатно в хорошем качестве


    Вы не можете начинать темы
    Вы не можете отвечать на сообщения
    Вы не можете редактировать свои сообщения
    Вы не можете удалять свои сообщения
    Вы не можете голосовать в опросах
    Вы не можете прикреплять файлы к сообщениям
    Вы можете скачивать файлы