Ссылка на приватное зеркало нашего сайта всего за 1$. Внимание количество ограничено!!!

2 сезон

iTunes

1 сезон

1

iTunes

iTunes

iTunes

1 сезон

RePack

30

ИГРА 18+

pack

ВАЖНО

!!Акция!!

Alien_RageХит недели

RePack

MK11
pack

Забери бонус

RePack

jed

!!Акция!!

Alien_Rage

RePack

fifa19

RePack

Assassins Creed: Odyssey

RePack

NEED FOR SPEED™ PAYBACK

4 сезон

9 сезон

Бесстыжие 9 сезон

Все сериалы

все сериалы на PB.wtf

RePack

FAR CRY 5
  

Рапунцель: Запутанная история / Tangled (Нэйтан Грено, Байрон Ховард) [2010, мультфильм, мюзикл, фэнтези, мелодрама, комедия, семейный, HDRip-AVC] от R.G. nICE Films pb.wtf

Рапунцель: Запутанная история через торрент pb.wtf

Раздают: 27 [ 541 KB/s ] Качают: 5 [ 262 KB/s ]
Размер: 1.46 GB | Добавлен: 8 лет 9 мес. назад | Торрент скачан:3472 раза
Скачать  

16-01-2012 06:03 Рапунцель: Запутанная история Скачать торрент  

Рапунцель: Запутанная история / Tangled
«Приключения предпочитают блондинок»



Год выпуска: 2010
Страна: США
Жанр: мультфильм, мюзикл, фэнтези, мелодрама, комедия, семейный
Продолжительность: 01:40:57
Перевод: Профессиональный (полное дублирование)

Режиссер: Нэйтан Грено, Байрон Ховард

В ролях: Мэнди Мур, Закари Левай, Донна Мерфи, Рон Перлман, М. К. Гейни, Джефри Тэмбор, Брэд Гэррет, Пол Ф. Томпкинс, Ричард Кил, Делани Роуз Стейн

Описание: Обаятельный разбойник Флинн путешествует по жизни с легкостью, лишь потому, что он красив, болтлив и удачлив. И казалось, фортуна всегда на его стороне, пока однажды он не выбирает высокую башню в густой чаще леса в качестве «спокойного» убежища. Флинн оказывается связанным по рукам и ногам юной красавицей по имени Рапунцель.
Если вы думаете, что самое интересное в ней — это 21 метр волшебных золотистых волос, то вы заблуждаетесь! Запертая в башне и отчаянно ищущая приключений, Рапунцель решает использовать Флинна в качестве билета в большой мир. Сначала комичное похищение, затем невинный шантаж — и вот наши герои на воле. Вместе с главными героями в авантюрное путешествие отправятся бравый конь-ищейка Максимус, ручной хамелеон и шайка сумасбродных разбойников.


|


Качество: HDRip-AVC (Rip by Demonessa)
Исходник: BDRip 720p
Формат: MKV
Видео кодек: H.264
Аудио кодек: AC3
Видео: H.264, 1024*576, 23,976 кадр/сек, 1614 Кбит/сек, 0.114 Бит/(Пиксели*Кадры)
Аудио: AC3, 448 Кбит/сек, 6 каналов, 48,0 КГц


Код:

Общее
Уникальный идентификатор         : 206775328169484823316988799697723601583 (0x9B8F7AC8EA17C65B8C1DA0B8F0A432AF)
Полное имя                       : E:\Video\R.G. nICE Films (Rips by Demonessa)\Мультфильмы\Рапунцель - Запутанная история Rip be Demonessa.mkv
Формат                           : Matroska
Размер файла                     : 1,46 Гбайт
Продолжительность                : 1 ч. 40 м.
Общий поток                      : 2064 Кбит/сек
Дата кодирования                 : UTC 2012-01-16 05:50:37
Программа кодирования            : mkvmerge v4.9.1 ('Ich will') built on Jul 11 2011 23:53:15
Библиотека кодирования           : libebml v1.2.1 + libmatroska v1.1.1

Видео
Идентификатор                    : 1
Формат                           : AVC
Формат/Информация                : Advanced Video Codec
Профиль формата                  : High@L4.1
Параметр CABAC формата           : Да
Параметр ReFrames формата        : 8 кадры
Идентификатор кодека             : V_MPEG4/ISO/AVC
Продолжительность                : 1 ч. 40 м.
Битрейт                          : 1614 Кбит/сек
Ширина                           : 1024 пикс.
Высота                           : 576 пикс.
Соотношение сторон               : 16:9
Частота кадров                   : 23,976 кадр/сек
Цветовое пространство            : YUV
Подвыборка цветности             : 4:2:0
Битовая глубина                  : 8 бит
Тип развёртки                    : Прогрессивная
Бит/(Пиксели*Кадры)              : 0.114
Размер потока                    : 1,11 Гбайт (76%)
Заголовок                        : Rip by Demonessa
Библиотека кодирования           : x264 core 115 r1995 c1e60b9
Настройки программы              : cabac=1 / ref=8 / deblock=1:-2:-1 / analyse=0x3:0x113 / me=umh / subme=9 / psy=1 / psy_rd=1.00:0.00 / mixed_ref=1 / me_range=32 / chroma_me=1 / trellis=2 / 8x8dct=1 / cqm=0 / deadzone=21,11 / fast_pskip=1 / chroma_qp_offset=-2 / threads=1 / sliced_threads=0 / nr=0 / decimate=1 / interlaced=0 / bluray_compat=0 / constrained_intra=0 / bframes=10 / b_pyramid=2 / b_adapt=1 / b_bias=0 / direct=1 / weightb=1 / open_gop=0 / weightp=2 / keyint=250 / keyint_min=23 / scenecut=40 / intra_refresh=0 / rc_lookahead=40 / rc=2pass / mbtree=1 / bitrate=1614 / ratetol=1.0 / qcomp=0.70 / qpmin=10 / qpmax=51 / qpstep=4 / cplxblur=20.0 / qblur=0.5 / ip_ratio=1.40 / aq=1:1.00
Язык                             : English

Аудио
Идентификатор                    : 2
Формат                           : AC-3
Формат/Информация                : Audio Coding 3
Расширение режима                : CM (complete main)
Идентификатор кодека             : A_AC3
Продолжительность                : 1 ч. 40 м.
Вид битрейта                     : Постоянный
Битрейт                          : 448 Кбит/сек
Канал(ы)                         : 6 канала(ов)
Расположение каналов             : Front: L C R, Side: L R, LFE
Частота                          : 48,0 КГц
Битовая глубина                  : 16 бит
Метод сжатия                     : С потерями
Размер потока                    : 324 Мбайт (22%)
Заголовок                        : Дубляж
Язык                             : Russian



pb.wtf



Скачать Рапунцель: Запутанная история через торрент http://s002.youpic.su/pictures/1326661200/dbdf6c5d65bf7e7fab13d2195a6c1d47.png Скачать фильм Рапунцель: Запутанная история через торрент бесплантно в хорошем качестве Описание: Обаятельный разбойник Флинн путешествует по жизни с легкостью, лишь потому, что он красив, болтлив и удачлив. И казалось, фортуна ... 9.8 10 51
Info! Золотая раздача, скачанное не засчитывается.
Торрент: Зарегистрирован [2012-01-16 06:03] · скачан: 3 472 раз
Статус: √ проверено
Размер: 1.46 GB
Как cкачать? Как скачать Рапунцель: Запутанная история через торрент | qTorrent

28-11-2019 20:33  

Отключить всю рекламу на сайте

08-02-2012 15:46 Рапунцель: Запутанная история Скачать торрент  

спасибо за мультpb.wtf



07-04-2012 06:56 Рапунцель: Запутанная история Скачать торрент  

раздавать кто нибудь будет?pb.wtf



    Дорогой пользователь! Огромная просьба, поблагодарите релизера, оцените раздачу и оставьте свои комментарий, если Вы скачали Рапунцель: Запутанная история через торрент бесплатно! Внесите свою лепту в развитие PiratBit!
    Комментировать посты могут только пользователи прошедшие не сложную регистрацию
    Показать сообщения:    

    Рапунцель: Запутанная история через торрент
    Скачать бесплатно Рапунцель: Запутанная история
    Рапунцель: Запутанная история скачать торрент
    Рапунцель: Запутанная история смотреть онлайн
    Cкачать фильм Рапунцель: Запутанная история бесплатно
    Рапунцель: Запутанная история скачать торрент в хорошем качестве
    Рапунцель: Запутанная история смотреть онлайн бесплатно в хорошем качестве


    Вы не можете начинать темы
    Вы не можете отвечать на сообщения
    Вы не можете редактировать свои сообщения
    Вы не можете удалять свои сообщения
    Вы не можете голосовать в опросах
    Вы не можете прикреплять файлы к сообщениям
    Вы можете скачивать файлы