Ссылка на приватное зеркало нашего сайта всего за 1$. Внимание количество ограничено!!!

2 сезон

iTunes

1 сезон

1

iTunes

iTunes

iTunes

1 сезон

RePack

30

ИГРА 18+

pack

ВАЖНО

!!Акция!!

Alien_RageХит недели

RePack

MK11
pack

Забери бонус

RePack

jed

!!Акция!!

Alien_Rage

RePack

fifa19

RePack

Assassins Creed: Odyssey

RePack

NEED FOR SPEED™ PAYBACK

4 сезон

9 сезон

Бесстыжие 9 сезон

Все сериалы

все сериалы на PB.wtf

RePack

FAR CRY 5
  

Как приручить дракона / How to Train Your Dragon (Дин ДеБлуа, Крис Сандерс) [2010, мультфильм, фэнтези, комедия, приключения, семейный, HDRip-AVC] от R.G. nICE Films pb.wtf

Как приручить дракона через торрент pb.wtf

Раздают: 32 [ 10 KB/s ] Качают: 3 [ 0 KB/s ]
Размер: 1.45 GB | Добавлен: 8 лет 9 мес. назад | Торрент скачан:3592 раза
Скачать  

16-01-2012 06:22 Как приручить дракона Скачать торрент  

Как приручить дракона / How to Train Your Dragon


Год выпуска: 2010
Страна: США
Жанр: мультфильм, фэнтези, комедия, приключения, семейный
Продолжительность: 01:37:51
Перевод: Профессиональный (полное дублирование)

Режиссер: Дин ДеБлуа, Крис Сандерс

В ролях: Джей Барушель, Джерард Батлер, Крэйг Фергюсон, Америка Феррера, Джона Хилл, Кристофер Минц-Плассе, ТиДжей Миллер, Кристен Уиг, Робин Аткин Даунс, Филип МакГрэйд

Описание: Вы узнаете историю подростка Иккинга, которому не слишком близки традиции его героического племени, много лет ведущего войну с драконами. Мир Иккинга переворачивается с ног на голову, когда он неожиданно встречает дракона Беззубика, который поможет ему и другим викингам увидеть привычный мир с совершенно другой стороны…


|


Качество: HDRip-AVC (Rip by Demonessa)
Исходник: BDRip 720p
Формат: MKV
Видео кодек: H.264
Аудио кодек: AC3
Видео: H.264, 1024*432, 23,976 кадр/сек, 1679 Кбит/сек, 0.158 Бит/(Пиксели*Кадры)
Аудио: AC3, 448 Кбит/сек, 6 каналов, 48,0 КГц


Код:

Общее
Уникальный идентификатор         : 208004764219650483590844691718979103408 (0x9C7C42A97B46949FAAFF98B7B0CEAAB0)
Полное имя                       : E:\Video\R.G. nICE Films (Rips by Demonessa)\Мультфильмы\Как приручить дракона Rip by Demonessa.mkv
Формат                           : Matroska
Размер файла                     : 1,45 Гбайт
Продолжительность                : 1 ч. 37 м.
Общий поток                      : 2129 Кбит/сек
Дата кодирования                 : UTC 2012-01-16 05:37:12
Программа кодирования            : mkvmerge v4.9.1 ('Ich will') built on Jul 11 2011 23:53:15
Библиотека кодирования           : libebml v1.2.1 + libmatroska v1.1.1

Видео
Идентификатор                    : 1
Формат                           : AVC
Формат/Информация                : Advanced Video Codec
Профиль формата                  : High@L4.1
Параметр CABAC формата           : Да
Параметр ReFrames формата        : 8 кадры
Параметры GOP формата            : M=1, N=52
Идентификатор кодека             : V_MPEG4/ISO/AVC
Продолжительность                : 1 ч. 37 м.
Битрейт                          : 1679 Кбит/сек
Ширина                           : 1024 пикс.
Высота                           : 432 пикс.
Соотношение сторон               : 2,35:1
Частота кадров                   : 23,976 кадр/сек
Цветовое пространство            : YUV
Подвыборка цветности             : 4:2:0
Битовая глубина                  : 8 бит
Тип развёртки                    : Прогрессивная
Бит/(Пиксели*Кадры)              : 0.158
Размер потока                    : 1,12 Гбайт (77%)
Заголовок                        : Rip by Demonessa
Библиотека кодирования           : x264 core 115 r1995 c1e60b9
Настройки программы              : cabac=1 / ref=8 / deblock=1:-2:-1 / analyse=0x3:0x113 / me=umh / subme=9 / psy=1 / psy_rd=1.00:0.00 / mixed_ref=1 / me_range=32 / chroma_me=1 / trellis=2 / 8x8dct=1 / cqm=0 / deadzone=21,11 / fast_pskip=1 / chroma_qp_offset=-2 / threads=1 / sliced_threads=0 / nr=0 / decimate=1 / interlaced=0 / bluray_compat=0 / constrained_intra=0 / bframes=10 / b_pyramid=2 / b_adapt=1 / b_bias=0 / direct=1 / weightb=1 / open_gop=0 / weightp=2 / keyint=250 / keyint_min=23 / scenecut=40 / intra_refresh=0 / rc_lookahead=40 / rc=2pass / mbtree=1 / bitrate=1679 / ratetol=1.0 / qcomp=0.70 / qpmin=10 / qpmax=51 / qpstep=4 / cplxblur=20.0 / qblur=0.5 / ip_ratio=1.40 / aq=1:1.00
Язык                             : English

Аудио
Идентификатор                    : 2
Формат                           : AC-3
Формат/Информация                : Audio Coding 3
Расширение режима                : CM (complete main)
Идентификатор кодека             : A_AC3
Продолжительность                : 1 ч. 37 м.
Вид битрейта                     : Постоянный
Битрейт                          : 448 Кбит/сек
Канал(ы)                         : 6 канала(ов)
Расположение каналов             : Front: L C R, Side: L R, LFE
Частота                          : 48,0 КГц
Битовая глубина                  : 16 бит
Метод сжатия                     : С потерями
Размер потока                    : 314 Мбайт (21%)
Заголовок                        : Дубляж
Язык                             : Russian


pb.wtf



Скачать Как приручить дракона через торрент http://s002.youpic.su/pictures/1326661200/7b1e939aa5cecbf567d90e677be100fe.png Скачать фильм Как приручить дракона через торрент бесплантно в хорошем качестве Описание: Вы узнаете историю подростка Иккинга, которому не слишком близки традиции его героического племени, много лет ведущего войну с ... 9.9 10 56
Info! Золотая раздача, скачанное не засчитывается.
Торрент: Зарегистрирован [2012-01-16 06:22] · скачан: 3 592 раз
Статус: √ проверено
Размер: 1.45 GB
Как cкачать? Как скачать Как приручить дракона через торрент | qTorrent

28-11-2019 20:33  

Отключить всю рекламу на сайте

16-01-2012 11:40 Как приручить дракона Скачать торрент  

клево ^^pb.wtf



16-01-2012 12:09 Как приручить дракона Скачать торрент  

Классный мультфильм,побольше бы таких)pb.wtf



09-01-2013 12:38 Как приручить дракона Скачать торрент  

дайте скорости пожалуйста ребенок ждет уже не можетpb.wtf



10-07-2013 18:52 Как приручить дракона Скачать торрент  

lampard
Прикольная Ава.pb.wtf



24-02-2019 09:36 Как приручить дракона Скачать торрент  

.pb.wtf



    Дорогой пользователь! Огромная просьба, поблагодарите релизера, оцените раздачу и оставьте свои комментарий, если Вы скачали Как приручить дракона через торрент бесплатно! Внесите свою лепту в развитие PiratBit!
    Комментировать посты могут только пользователи прошедшие не сложную регистрацию
    Показать сообщения:    

    Как приручить дракона через торрент
    Скачать бесплатно Как приручить дракона
    Как приручить дракона скачать торрент
    Как приручить дракона смотреть онлайн
    Cкачать фильм Как приручить дракона бесплатно
    Как приручить дракона скачать торрент в хорошем качестве
    Как приручить дракона смотреть онлайн бесплатно в хорошем качестве


    Вы не можете начинать темы
    Вы не можете отвечать на сообщения
    Вы не можете редактировать свои сообщения
    Вы не можете удалять свои сообщения
    Вы не можете голосовать в опросах
    Вы не можете прикреплять файлы к сообщениям
    Вы можете скачивать файлы