1 сезон

3 сезон

iTunes

1

iTunes

MVO

iTunes

13

1 сезон

RePack

30

Deluxe

pack

Лицензия

ВАЖНО

ИГРА 18+

pack

RePack

MK11

RePack

jed

RePack

fifa19

RePack

RDR2

RePack

NEED FOR SPEED™ PAYBACK

4 сезон

9 сезон

Бесстыжие 9 сезон

Все сериалы

все сериалы на PB.wtf

RePack

FAR CRY 5

Anonymous, доброй ночи, мы катастрофически не успеваем собрать деньги на оплату серверов, помогите нам пожалуйста 5,10,15р., для нас важна любая помощь . В качестве благодарности мы отключим Вам всю рекламу на сайте (укажите свой ник в строку Ваше имя)!

×
  
Magnet ссылка

Прощальное дело / L'affaire Farewell (Кристиан Карион) [2009 г., триллер, драма, DVD9, лицензия] pb.wtf

Прощальное дело через торрент pb.wtf

Размер: 5.6 GB | Добавлен: 9 лет 6 мес. назад | Торрент скачан:21 раз
Скачать  

16-01-2012 20:43 Прощальное дело Скачать торрент  


Прощальное дело / Farewell / L'affaire Farewell
«Secrets have the power to change the course of history.»


Страна: Франция
Студия: Blackfeet Pictures, Canal+ [fr], Ciné Cinémas, Cofinova 5, France 2 (FR 2), France 2 Cinéma, Le Bureau, Nord-Ouest Productions, Pathé, Région Ile-de-France, Une Hirondelle Productions
Жанр: триллер, драма
Год выпуска: 2009
Мировая премьера: 4 сентября 2009
Дата выхода DVD: 19 января 2012
Продолжительность: 01:48:45
Перевод: Профессиональный (многоголосый закадровый) [Лицензия]
Cубтитры: нет
Оригинальная аудиодорожка: французский
Режиссер: Кристиан Карион / Christian Carion
В ролях: Эмир Кустурица, Гийом Кане, Ингеборга Дапкунайте, Уилльем Дефо, Дэвид Соул, Дина Корзун, Филипп Маньян, Нильс Ареструп, Евгений Харланов, Кристиан Сандстрём
Описание: Москва начала 80-х. Полковник КГБ Сергей Григорьев, разочарованный советским режимом, решает разрушить систему. Он налаживает контакты с французским инженером Пьером Фроманом. И не столько его информация, сколько его деятельность вообще вызывает жгучий интерес у западных спецслужб. Обеспокоенный президент Франции Франсуа Миттерран решается проинформировать коллегу из США Рональда Рейгана: «Благодаря невероятной шпионской системе Советский Союз добывает на Западе информацию о последних исследованиях в области науки и вооружений, включая оборонную систему США».
В итоге главы правительств решают сделать продажного москвича своим информатором через Фромана. Свой источник секретных данных французы величают «Farewell», и инженер невольно становится участником самого громкого шпионажа XX века, подвергая опасности свою жизнь и жизнь своих близких.

Бонусы: нет

Релиз группы:
Качество: DVD9 R5
Формат: DVD-Video
Видео кодек: MPEG2
Аудио кодек: AC3
Видео: PAL 16:9 (720x576(0.634)) MPEG Video, 25,000 кадр/сек, 6572 Кбит/сек
Аудио #1: Russian (Dolby AC3, 6 ch) 448 Кбит/сек, 48,0 КГц
Аудио #2: Francais (Dolby AC3, 2 ch) 224 Кбит/сек, 48,0 КГц



Title:
Size: 5.60 Gb ( 5 876 372 KBytes ) - DVD-9
Enabled regions: 1, 2, 3, 4, 5, 6, 7, 8

VTS_01 :
Play Length: 00:00:15
Video: PAL 4:3 (720x576) VBR
Audio:
Not specified (Dolby AC3, 2 ch)

VTS_02 :
Play Length: 00:00:08
Video: PAL 16:9 (720x576) VBR, Auto Pan&Scan
Audio:
Not specified (Dolby AC3, 2 ch)

VTS_03 :
Play Length: 01:48:45
Video: PAL 16:9 (720x576) VBR, Auto Pan&Scan
Audio:
Russian (Dolby AC3, 6 ch)
Francais (Dolby AC3, 2 ch)

Menu Video:
PAL 16:9 (720x576) VBR
Auto Letterboxed
Menu English Language Unit :
Root Menu
Chapter (PTT) Menu
Общее
Полное имя : G:\Новинки 2011\Prowalnoe.delo.2009.DVD9\VIDEO_TS\VTS_03_1.VOB
Формат : MPEG-PS
Размер файла : 1024 Мбайт
Продолжительность : 19 м.
Общий поток : 7391 Кбит/сек

Видео
Идентификатор : 224 (0xE0)
Формат : MPEG Video
Версия формата : Version 2
Профиль формата : Main@Main
Параметр BVOP формата : Да
Параметр матрицы формата : По умолчанию
Параметр GOP формата : M=3, N=12
Продолжительность : 19 м.
Вид битрейта : Переменный
Битрейт : 6572 Кбит/сек
Максимальный битрейт : 7500 Кбит/сек
Ширина : 720 пикселей
Высота : 576 пикселей
Соотношение сторон : 16:9
Частота кадров : 25,000 кадров/сек
Стандарт вещания : PAL
Цветовое пространство : YUV
Субдискретизация насыщенности : 4:2:0
Битовая глубина : 8 бит
Тип развёртки : Прогрессивная
Метод сжатия : С потерями
Бит/(Пиксели*Кадры) : 0.634
Размер потока : 911 Мбайт (89%)

Аудио #1
Идентификатор : 189 (0xBD)-128 (0x80)
Формат : AC-3
Формат/Информация : Audio Coding 3
Расширение режима : CM (complete main)
Режим смешивания : DVD-Video
Продолжительность : 19 м.
Вид битрейта : Постоянный
Битрейт : 448 Кбит/сек
Каналы : 6 каналов
Расположение каналов : Front: L C R, Side: L R, LFE
Частота : 48,0 КГц
Битовая глубина : 16 бит
Метод сжатия : С потерями
Размер потока : 62,1 Мбайт (6%)

Аудио #2
Идентификатор : 189 (0xBD)-129 (0x81)
Формат : AC-3
Формат/Информация : Audio Coding 3
Расширение режима : CM (complete main)
Режим смешивания : DVD-Video
Продолжительность : 19 м.
Вид битрейта : Постоянный
Битрейт : 224 Кбит/сек
Каналы : 2 канала
Расположение каналов : Front: L R
Частота : 48,0 КГц
Битовая глубина : 16 бит
Метод сжатия : С потерями
Размер потока : 31,0 Мбайт (3%)










pb.wtf



Скачать Прощальное дело через торрент http://i1.imageban.ru/out/2012/01/17/5a34d2875356869dab6a1d499b4943a3.jpg Скачать фильм Прощальное дело через торрент бесплантно в хорошем качестве Описание: Москва начала 80-х. Полковник КГБ Сергей Григорьев, разочарованный советским режимом, решает разрушить систему. Он налаживает ... 10 10 1
Info! Золотая раздача, скачанное не засчитывается.
Торрент: Зарегистрирован [2012-01-16 20:43] · скачан: 21 раз
Статус: √ проверено
Размер: 5.6 GB
Как cкачать? Как скачать Прощальное дело через торрент | UTorrent

28-11-2019 20:33  

Отключить всю рекламу на сайте

    Дорогой пользователь! Огромная просьба, поблагодарите релизера, оцените раздачу и оставьте свои комментарий, если Вы скачали Прощальное дело через торрент бесплатно! Внесите свою лепту в развитие PiratBit!
    Комментировать посты могут только пользователи прошедшие не сложную регистрацию
    Показать сообщения:    

    Прощальное дело через торрент
    Скачать бесплатно Прощальное дело
    Прощальное дело скачать торрент
    Прощальное дело смотреть онлайн
    Cкачать фильм Прощальное дело бесплатно
    Прощальное дело скачать торрент в хорошем качестве
    Прощальное дело смотреть онлайн бесплатно в хорошем качестве


    Вы не можете начинать темы
    Вы не можете отвечать на сообщения
    Вы не можете редактировать свои сообщения
    Вы не можете удалять свои сообщения
    Вы не можете голосовать в опросах
    Вы не можете прикреплять файлы к сообщениям
    Вы можете скачивать файлы