1 сезон

3 сезон

iTunes

1

iTunes

MVO

iTunes

13

1 сезон

RePack

30

Deluxe

pack

Лицензия

ВАЖНО

ИГРА 18+

pack

RePack

MK11

RePack

jed

RePack

fifa19

RePack

RDR2

RePack

NEED FOR SPEED™ PAYBACK

4 сезон

9 сезон

Бесстыжие 9 сезон

Все сериалы

все сериалы на PB.wtf

RePack

FAR CRY 5

Anonymous, добрый вечер, мы катастрофически не успеваем собрать деньги на оплату серверов, помогите нам пожалуйста 5,10,15р., для нас важна любая помощь . В качестве благодарности мы отключим Вам всю рекламу на сайте (укажите свой ник в строку Ваше имя)!

×
  
Magnet ссылка

Добро пожаловать на юг / Benvenuti al sud (Лука Миниеро / Luca Miniero) [2010, комедия, DVD9] pb.wtf

Добро пожаловать на юг через торрент pb.wtf

Размер: 4.82 GB | Добавлен: 9 лет 6 мес. назад | Торрент скачан:46 раз
Скачать  

16-01-2012 21:22 Добро пожаловать на юг Скачать торрент  


Добро пожаловать на юг / Benvenuti al sud
Страна: Италия
Студия: Campania Film Commission, Cattleya, Comune di Castellabate, Medusa Film S.p.a., Regione Campan, Sky
Жанр: комедия
Год выпуска: 2010
Мировая премьера: 1 октября 2010
Дата выхода DVD: 19 января 2012
Продолжительность: 01:41:22
Перевод: Профессиональный (дублированный) [Лицензия]
Cубтитры: нет
Оригинальная аудиодорожка: итальянский
Режиссер: Лука Миниеро / Luca Miniero
В ролях: Клаудио Бизио, Алессандро Сиани, Анджела Финоккьяро, Валентина Лодовини, Найке Ривелли, Джакомо Риззо, Нандо Паоне, Теко Селио, Риккардо Дзинна, Нундзиа Скьяно
Описание: Альберто, начальник почтового отделения в городе Брианца, под давлением жены Сильвии, готов сделать все, чтобы получить перевод в Милан. Ради этого он идет на подлог документов. Но трюк не сработал и в качестве наказания он был переведен в небольшой городок в Кампании, который для жителя Северной Италии эквивалентен настоящему кошмару. Однако, пожив в «кошмаре» некоторое время, Альберт открывает для себя неожиданные прелести жизни: любовь коллег, гостеприимство жителей и приобретает нового большого друга, почтальона Маттиа…

Бонусы: нет

Релиз группы:
Качество: DVD9 R5
Формат: DVD-Video
Видео кодек: MPEG2
Аудио кодек: AC3
Видео: PAL 16:9 (720x576(0.578)) MPEG Video, 25,000 кадр/сек, 5990 Кбит/сек
Аудио #1: Russian (Dolby AC3, 6 ch) 448 Кбит/сек, 48,0 КГц
Аудио #2: Italiano (Dolby AC3, 2 ch) 224 Кбит/сек, 48,0 КГц



Title:
Size: 4.82 Gb ( 5 056 116 KBytes ) - DVD-9
Enabled regions: 1, 2, 3, 4, 5, 6, 7, 8

VTS_01 :
Play Length: 00:00:15
Video: PAL 4:3 (720x576) VBR
Audio:
Not specified (Dolby AC3, 2 ch)

VTS_02 :
Play Length: 00:00:08
Video: PAL 16:9 (720x576) VBR, Auto Pan&Scan
Audio:
Not specified (Dolby AC3, 2 ch)

VTS_03 :
Play Length: 01:41:22
Video: PAL 16:9 (720x576) VBR, Auto Pan&Scan
Audio:
Russian (Dolby AC3, 6 ch)
Italiano (Dolby AC3, 2 ch)

Menu Video:
PAL 16:9 (720x576) VBR
Auto Letterboxed
Menu English Language Unit :
Root Menu
Chapter (PTT) Menu
Общее
Полное имя : G:\Новинки 2011\Dobro.pozhalovat.na.jug.2010.DVD9\VIDEO_TS\VTS_03_1.VOB
Формат : MPEG-PS
Размер файла : 1024 Мбайт
Продолжительность : 21 м.
Общий поток : 6797 Кбит/сек

Видео
Идентификатор : 224 (0xE0)
Формат : MPEG Video
Версия формата : Version 2
Профиль формата : Main@Main
Параметр BVOP формата : Да
Параметр матрицы формата : По умолчанию
Параметр GOP формата : M=3, N=12
Продолжительность : 21 м.
Вид битрейта : Переменный
Битрейт : 5990 Кбит/сек
Максимальный битрейт : 7500 Кбит/сек
Ширина : 720 пикселей
Высота : 576 пикселей
Соотношение сторон : 16:9
Частота кадров : 25,000 кадров/сек
Стандарт вещания : PAL
Цветовое пространство : YUV
Субдискретизация насыщенности : 4:2:0
Битовая глубина : 8 бит
Тип развёртки : Прогрессивная
Метод сжатия : С потерями
Бит/(Пиксели*Кадры) : 0.578
Размер потока : 902 Мбайт (88%)

Аудио #1
Идентификатор : 189 (0xBD)-128 (0x80)
Формат : AC-3
Формат/Информация : Audio Coding 3
Расширение режима : CM (complete main)
Режим смешивания : DVD-Video
Продолжительность : 21 м.
Вид битрейта : Постоянный
Битрейт : 448 Кбит/сек
Каналы : 6 каналов
Расположение каналов : Front: L C R, Side: L R, LFE
Частота : 48,0 КГц
Битовая глубина : 16 бит
Метод сжатия : С потерями
Размер потока : 67,5 Мбайт (7%)

Аудио #2
Идентификатор : 189 (0xBD)-129 (0x81)
Формат : AC-3
Формат/Информация : Audio Coding 3
Расширение режима : CM (complete main)
Режим смешивания : DVD-Video
Продолжительность : 21 м.
Вид битрейта : Постоянный
Битрейт : 224 Кбит/сек
Каналы : 2 канала
Расположение каналов : Front: L R
Частота : 48,0 КГц
Битовая глубина : 16 бит
Метод сжатия : С потерями
Размер потока : 33,7 Мбайт (3%)










pb.wtf



Скачать Добро пожаловать на юг через торрент http://i2.imageban.ru/out/2012/01/17/d216d08e16aa0bc3f4bf87041f24265d.jpg Скачать фильм Добро пожаловать на юг через торрент бесплантно в хорошем качестве Описание: Альберто, начальник почтового отделения в городе Брианца, под давлением жены Сильвии, готов сделать все, чтобы получить перевод в ... 5 10 4
Info! Золотая раздача, скачанное не засчитывается.
Торрент: Зарегистрирован [2012-01-16 21:22] · скачан: 46 раз
Статус: √ проверено
Размер: 4.82 GB
Как cкачать? Как скачать Добро пожаловать на юг через торрент | UTorrent

% Раздел Тема Автор DL S | L
Фильмы 2010 [ 1.37 GB ] Добро пожаловать на юг / Benvenuti al sud [2010 HDRip] Sудья Скачать
1 | 0
Фильмы 2010 [ 2.43 GB ] Добро пожаловать на юг / Benvenuti al sud [2010 BDRip-AVC] rza_86 Скачать
1 | 0
Фильмы 2010 [ 743 MB ] Добро пожаловать на юг / Benvenuti al sud [2010 HDRip] Sудья Скачать
1 | 0

28-11-2019 20:33  

Отключить всю рекламу на сайте


16-01-2012 21:57 Добро пожаловать на юг Скачать торрент  

это аналог французского?pb.wtf



16-01-2012 22:02 Добро пожаловать на юг Скачать торрент  

Что за пенсионеры на обложке?pb.wtf



    Дорогой пользователь! Огромная просьба, поблагодарите релизера, оцените раздачу и оставьте свои комментарий, если Вы скачали Добро пожаловать на юг через торрент бесплатно! Внесите свою лепту в развитие PiratBit!
    Комментировать посты могут только пользователи прошедшие не сложную регистрацию
    Показать сообщения:    

    Добро пожаловать на юг через торрент
    Скачать бесплатно Добро пожаловать на юг
    Добро пожаловать на юг скачать торрент
    Добро пожаловать на юг смотреть онлайн
    Cкачать фильм Добро пожаловать на юг бесплатно
    Добро пожаловать на юг скачать торрент в хорошем качестве
    Добро пожаловать на юг смотреть онлайн бесплатно в хорошем качестве


    Вы не можете начинать темы
    Вы не можете отвечать на сообщения
    Вы не можете редактировать свои сообщения
    Вы не можете удалять свои сообщения
    Вы не можете голосовать в опросах
    Вы не можете прикреплять файлы к сообщениям
    Вы можете скачивать файлы